Поиск

(Avant-Garde, Contemporary Jazz, Jewish, Tzadik) Davka - Lavy's Dream - 2001, FLAC (tracks+.cue), lossless

(Avant-Garde, Contemporary Jazz, Jewish, Tzadik) Davka - Lavy's Dream - 2001, FLAC (tracks+.cue), lossless
Davka / Lavy's Dream
Жанр: Avant-Garde, Contemporary Jazz, Jewish, Tzadik
Страна-производитель диска: U.S.A.
Год издания: 2001
Издатель (лейбл): Tzadik
Номер по каталогу: TZ 7140
Аудиокодек: FLAC (*.flac)
Тип рипа: tracks+.cue
Битрейт аудио: lossless
Продолжительность: 1:03:53
Источник (релизер): Max Monteiro
Наличие сканов в содержимом раздачи: нет
Треклист:
01. The Golem (Davka) 4:22
02. The Dream of Rabbi Lavy (Davka) 4:14
03. Merkavah (Davka) 5:23
04. Yizkor for Rabin (Davka) 4:26
05. Watchnight (Davka) 6:36
06. Sefirah (Davka) 6:26
07. Nachshon’s Wail (Davka) 4:53
08. Xan (Davka) 5:45
09. Di Terkishe Khasene (trad. / Davka) 5:35
10. Moishe’s Doina (Davka) 3:46
11. A Bisl Zhok (trad.) 1:21
12. Romanian Fantasy #1 & 2.1 (trad. / Davka) 4:12
13. Ahl’s Doina (Leon Ahl) 2:07
14. A Bisl Tag (trad.) 1:10
15. Yankel’s Pocket (Davka) 3:36
 
Лог создания рипа
Exact Audio Copy V1.0 beta 3 from 29. August 2011
EAC extraction logfile from 6. April 2013, 18:48
Davka / Lavy's Dream
Used drive : SlimtypeeNAU508 5 Adapter: 1 ID: 0
Read mode : Secure
Utilize accurate stream : Yes
Defeat audio cache : Yes
Make use of C2 pointers : No
Read offset correction : 6
Overread into Lead-In and Lead-Out : No
Fill up missing offset samples with silence : Yes
Delete leading and trailing silent blocks : No
Null samples used in CRC calculations : Yes
Used interface : Native Win32 interface for Win NT & 2000
Gap handling : Appended to previous track
Used output format : User Defined Encoder
Selected bitrate : 768 kBit/s
Quality : High
Add ID3 tag : No
Command line compressor : C:\Program Files (x86)\Exact Audio Copy\Flac\flac.exe
Additional command line options : -8 -V -T "ARTIST=%artist%" -T "TITLE=%title%" -T "ALBUM=%albumtitle%" -T "DATE=%year%" -T "TRACKNUMBER=%tracknr%" -T "GENRE=%genre%" -T "PERFORMER=%albuminterpret%" -T "COMPOSER=%composer%" %haslyrics%--tag-from-file=LYRICS="%lyricsfile%"%haslyrics% -T "ALBUMARTIST=%albumartist%" -T "DISCNUMBER=%cdnumber%" -T "TOTALDISCS=%totalcds%" -T "TOTALTRACKS=%numtracks%" -T "COMMENT=%comment%" %source% -o %dest%
TOC of the extracted CD
Track | Start | Length | Start sector | End sector
---------------------------------------------------------
1 | 0:00.00 | 4:21.56 | 0 | 19630
2 | 4:21.56 | 4:14.25 | 19631 | 38705
3 | 8:36.06 | 5:22.61 | 38706 | 62916
4 | 13:58.67 | 4:26.26 | 62917 | 82892
5 | 18:25.18 | 6:36.18 | 82893 | 112610
6 | 25:01.36 | 6:26.19 | 112611 | 141579
7 | 31:27.55 | 4:52.74 | 141580 | 163553
8 | 36:20.54 | 5:45.06 | 163554 | 189434
9 | 42:05.60 | 5:34.67 | 189435 | 214551
10 | 47:40.52 | 3:45.62 | 214552 | 231488
11 | 51:26.39 | 1:20.70 | 231489 | 237558
12 | 52:47.34 | 4:12.18 | 237559 | 256476
13 | 56:59.52 | 2:07.03 | 256477 | 266004
14 | 59:06.55 | 1:10.27 | 266005 | 271281
15 | 60:17.07 | 3:36.08 | 271282 | 287489
Track 1
Filename C:\EAC rips\01 - The Golem.wav
Pre-gap length 0:00:02.00
Peak level 94.2 %
Extraction speed 2.1 X
Track quality 100.0 %
Test CRC 3E606F40
Copy CRC 3E606F40
Accurately ripped (confidence 1) [39A569AA] (AR v2)
Copy OK
Track 2
Filename C:\EAC rips\02 - The Dream of Rabbi Lavy.wav
Pre-gap length 0:00:00.45
Peak level 100.0 %
Extraction speed 2.3 X
Track quality 100.0 %
Test CRC 7112A6D7
Copy CRC 7112A6D7
Accurately ripped (confidence 1) [71829036] (AR v2)
Copy OK
Track 3
Filename C:\EAC rips\03 - Merkavah.wav
Pre-gap length 0:00:00.45
Peak level 98.8 %
Extraction speed 2.7 X
Track quality 100.0 %
Test CRC 85781937
Copy CRC 85781937
Accurately ripped (confidence 1) [2BDFE26A] (AR v2)
Copy OK
Track 4
Filename C:\EAC rips\04 - Yizkor for Rabin.wav
Pre-gap length 0:00:00.45
Peak level 53.7 %
Extraction speed 2.8 X
Track quality 100.0 %
Test CRC 8A1EC8B3
Copy CRC 8A1EC8B3
Accurately ripped (confidence 1) [2C72B26A] (AR v2)
Copy OK
Track 5
Filename C:\EAC rips\05 - Watchnight.wav
Pre-gap length 0:00:00.45
Peak level 100.0 %
Extraction speed 3.2 X
Track quality 100.0 %
Test CRC 656A9667
Copy CRC 656A9667
Accurately ripped (confidence 1) [C80D365A] (AR v2)
Copy OK
Track 6
Filename C:\EAC rips\06 - Sefirah.wav
Pre-gap length 0:00:00.45
Peak level 100.0 %
Extraction speed 3.5 X
Track quality 100.0 %
Test CRC 9910B433
Copy CRC 9910B433
Accurately ripped (confidence 1) [D9145F3D] (AR v2)
Copy OK
Track 7
Filename C:\EAC rips\07 - Nachshon's Wail.wav
Pre-gap length 0:00:00.45
Peak level 92.7 %
Extraction speed 3.6 X
Track quality 100.0 %
Test CRC 1B7B59F8
Copy CRC 1B7B59F8
Accurately ripped (confidence 1) [ADFDD0F0] (AR v2)
Copy OK
Track 8
Filename C:\EAC rips\08 - Xan.wav
Pre-gap length 0:00:00.45
Peak level 98.5 %
Extraction speed 3.9 X
Track quality 100.0 %
Test CRC 03E876B7
Copy CRC 03E876B7
Accurately ripped (confidence 1) [E9F1A74D] (AR v2)
Copy OK
Track 9
Filename C:\EAC rips\09 - Di Terkishe Khasene.wav
Pre-gap length 0:00:00.45
Peak level 91.1 %
Extraction speed 4.0 X
Track quality 100.0 %
Test CRC 86B8FC40
Copy CRC 86B8FC40
Accurately ripped (confidence 1) [1C97DDB4] (AR v2)
Copy OK
Track 10
Filename C:\EAC rips\10 - Moishe's Doina.wav
Pre-gap length 0:00:01.45
Peak level 79.4 %
Extraction speed 4.0 X
Track quality 100.0 %
Test CRC BA7DF223
Copy CRC BA7DF223
Accurately ripped (confidence 1) [5A604E64] (AR v2)
Copy OK
Track 11
Filename C:\EAC rips\11 - A Bisl Zhok.wav
Peak level 51.4 %
Extraction speed 3.1 X
Track quality 100.0 %
Test CRC C8599865
Copy CRC C8599865
Accurately ripped (confidence 1) [6D6BB93E] (AR v2)
Copy OK
Track 12
Filename C:\EAC rips\12 - Romanian Fantasy #1 & 2.1.wav
Pre-gap length 0:00:00.45
Peak level 77.1 %
Extraction speed 4.2 X
Track quality 100.0 %
Test CRC 0C5B642C
Copy CRC 0C5B642C
Accurately ripped (confidence 1) [2833699E] (AR v2)
Copy OK
Track 13
Filename C:\EAC rips\13 - Ahl's Doina.wav
Pre-gap length 0:00:00.45
Peak level 69.7 %
Extraction speed 3.7 X
Track quality 100.0 %
Test CRC 5AABF383
Copy CRC 5AABF383
Accurately ripped (confidence 1) [3712B82C] (AR v2)
Copy OK
Track 14
Filename C:\EAC rips\14 - A Bisl Tag.wav
Peak level 72.5 %
Extraction speed 2.0 X
Track quality 99.8 %
Test CRC 05268257
Copy CRC 05268257
Accurately ripped (confidence 1) [69470370] (AR v2)
Copy OK
Track 15
Filename C:\EAC rips\15 - Yankel's Pocket.wav
Pre-gap length 0:00:00.45
Peak level 98.9 %
Extraction speed 3.4 X
Track quality 99.9 %
Test CRC 4AB6DD4D
Copy CRC 4AB6DD4D
Accurately ripped (confidence 1) [D90964A4] (AR v2)
Copy OK
All tracks accurately ripped
No errors occurred
End of status report
---- CUETools DB Plugin V2.1.4
[CTDB TOCID: 0imwkuwY2ozRivQ_KURPEnWCe_o-] disk not present in database
Submit result: 0imwkuwY2ozRivQ_KURPEnWCe_o- has been uploaded
==== Log checksum D34D5D54C437D204247F56B651151DE315F41960650ED99CA9BB8A2B556F3924 ====
 
Содержание индексной карты (.CUE)
REM GENRE Jewish
REM DATE 2001
REM DISCID D90EF90F
REM COMMENT "ExactAudioCopy v1.0b3"
PERFORMER "Davka"
TITLE "Lavy's Dream"
FILE "01 - The Golem.wav" WAVE
TRACK 01 AUDIO
TITLE "The Golem"
PERFORMER "Davka"
FLAGS DCP
INDEX 01 00:00:00
TRACK 02 AUDIO
TITLE "The Dream of Rabbi Lavy"
PERFORMER "Davka"
FLAGS DCP
INDEX 00 04:21:11
FILE "02 - The Dream of Rabbi Lavy.wav" WAVE
INDEX 01 00:00:00
TRACK 03 AUDIO
TITLE "Merkavah"
PERFORMER "Davka"
FLAGS DCP
INDEX 00 04:13:55
FILE "03 - Merkavah.wav" WAVE
INDEX 01 00:00:00
TRACK 04 AUDIO
TITLE "Yizkor for Rabin"
PERFORMER "Davka"
FLAGS DCP
INDEX 00 05:22:16
FILE "04 - Yizkor for Rabin.wav" WAVE
INDEX 01 00:00:00
TRACK 05 AUDIO
TITLE "Watchnight"
PERFORMER "Davka"
FLAGS DCP
INDEX 00 04:25:56
FILE "05 - Watchnight.wav" WAVE
INDEX 01 00:00:00
TRACK 06 AUDIO
TITLE "Sefirah"
PERFORMER "Davka"
FLAGS DCP
INDEX 00 06:35:48
FILE "06 - Sefirah.wav" WAVE
INDEX 01 00:00:00
TRACK 07 AUDIO
TITLE "Nachshon's Wail"
PERFORMER "Davka"
FLAGS DCP
INDEX 00 06:25:49
FILE "07 - Nachshon's Wail.wav" WAVE
INDEX 01 00:00:00
TRACK 08 AUDIO
TITLE "Xan"
PERFORMER "Davka"
FLAGS DCP
INDEX 00 04:52:29
FILE "08 - Xan.wav" WAVE
INDEX 01 00:00:00
TRACK 09 AUDIO
TITLE "Di Terkishe Khasene"
PERFORMER "Davka"
FLAGS DCP
INDEX 00 05:44:36
FILE "09 - Di Terkishe Khasene.wav" WAVE
INDEX 01 00:00:00
TRACK 10 AUDIO
TITLE "Moishe's Doina"
PERFORMER "Davka"
FLAGS DCP
INDEX 00 05:33:22
FILE "10 - Moishe's Doina.wav" WAVE
INDEX 01 00:00:00
FILE "11 - A Bisl Zhok.wav" WAVE
TRACK 11 AUDIO
TITLE "A Bisl Zhok"
PERFORMER "Davka"
FLAGS DCP
INDEX 01 00:00:00
TRACK 12 AUDIO
TITLE "Romanian Fantasy #1 & 2.1"
PERFORMER "Davka"
FLAGS DCP
INDEX 00 01:20:25
FILE "12 - Romanian Fantasy #1 & 2.1.wav" WAVE
INDEX 01 00:00:00
TRACK 13 AUDIO
TITLE "Ahl's Doina"
PERFORMER "Davka"
FLAGS DCP
INDEX 00 04:11:48
FILE "13 - Ahl's Doina.wav" WAVE
INDEX 01 00:00:00
FILE "14 - A Bisl Tag.wav" WAVE
TRACK 14 AUDIO
TITLE "A Bisl Tag"
PERFORMER "Davka"
FLAGS DCP
INDEX 01 00:00:00
TRACK 15 AUDIO
TITLE "Yankel's Pocket"
PERFORMER "Davka"
FLAGS DCP
INDEX 00 01:09:57
FILE "15 - Yankel's Pocket.wav" WAVE
INDEX 01 00:00:00
Доп. информация: Lavy’s Dream (1-9, 15) originally released by Interworld Music. Recorded live, mixed and mastered Shevat, 5756 (February 1996) at Bay Records, Berkeley, CA.
Tracks 10-14 recorded and mixed Nissan, 5760 (April 2000) at Bay Records, Berkeley, CA.
 
Состав
Daniel Hoffman – Violin
Moses Sedler – Cello
Adam Levenson – Doumbek, Zarb
Special guest :
Norbert Stachel – Bass Flute (track 9)
11:17
307
Нет комментариев. Ваш будет первым!