Поиск

(World Fusion, Cuban Jazz) Bobby Carcasses - Jazz Timbero - 1998, FLAC (tracks+.cue), lossless

(World Fusion, Cuban Jazz) Bobby Carcasses - Jazz Timbero - 1998, FLAC (tracks+.cue), lossless
Треклист:
♦ Bobby Carcasses - Jazz Timbero ♦
Жанр: World Fusion, Cuban Jazz
Страна-производитель диска: USA
Год издания: 1998
Издатель (лейбл): Candela / Tumi
Номер по каталогу: 42853212
Аудиокодек: FLAC (*.flac)
Тип рипа: tracks+.cue
Битрейт аудио: lossless
Продолжительность: 00:58:15
Источник (релизер): dreadbull
Наличие сканов в содержимом раздачи: да
Треклист:
01. Arian [06:30]
02. Quiero Que Comprendas [04:56]
03. Jazz Timbero [05:21]
04. El Manisero [04:03]
05. Misty [06:42]
06. Guajira En Re Menor [05:39]
07. La Sombra De Tu Sonrisa [06:02]
08. Mango Mangue [04:33]
09. No Tiene Letra [04:20]
10. Summertime [05:00]
11. A Brailar El Cubanco [05:04]
 
Лог создания рипа
Exact Audio Copy V1.0 beta 3 from 29. August 2011
EAC extraction logfile from 20. March 2013, 21:17
Bobby Carcasses / Jazz Timbero
Used drive : ASUS DRW-22B2L Adapter: 0 ID: 0
Read mode : Secure
Utilize accurate stream : Yes
Defeat audio cache : Yes
Make use of C2 pointers : No
Read offset correction : 6
Overread into Lead-In and Lead-Out : No
Fill up missing offset samples with silence : Yes
Delete leading and trailing silent blocks : No
Null samples used in CRC calculations : Yes
Used interface : Native Win32 interface for Win NT & 2000
Used output format : User Defined Encoder
Selected bitrate : 128 kBit/s
Quality : High
Add ID3 tag : Yes
Command line compressor : C:\Program Files\FLAC\flac.exe
Additional command line options : -8 -V -T "ARTIST=%artist%" -T "TITLE=%title%" -T "ALBUM=%albumtitle%" -T "DATE=%year%" -T "TRACKNUMBER=%tracknr%" -T "GENRE=%genre%" -T "PERFORMER=%albuminterpret%" -T "COMPOSER=%composer%" %haslyrics%--tag-from-file=LYRICS="%lyricsfile%"%haslyrics% -T "ALBUMARTIST=%albumartist%" -T "DISCNUMBER=%cdnumber%" -T "TOTALDISCS=%totalcds%" -T "TOTALTRACKS=%numtracks%" -T "COMMENT=%comment%" %source% -o %dest%
TOC of the extracted CD
Track | Start | Length | Start sector | End sector
---------------------------------------------------------
1 | 0:00.00 | 6:30.52 | 0 | 29301
2 | 6:30.52 | 4:56.28 | 29302 | 51529
3 | 11:27.05 | 5:21.50 | 51530 | 75654
4 | 16:48.55 | 4:03.37 | 75655 | 93916
5 | 20:52.17 | 6:42.23 | 93917 | 124089
6 | 27:34.40 | 5:39.70 | 124090 | 149584
7 | 33:14.35 | 6:02.70 | 149585 | 176804
8 | 39:17.30 | 4:33.07 | 176805 | 197286
9 | 43:50.37 | 4:20.58 | 197287 | 216844
10 | 48:11.20 | 5:00.00 | 216845 | 239344
11 | 53:11.20 | 5:04.35 | 239345 | 262179
Range status and errors
Selected range
Filename F:\Donkey Files\Bobby Carcasses - Jazz Timbero (1998, Candela) [eac-flac-scans] byDrBull\Bobby Carcasses - Jazz Timbero.wav
Peak level 99.4 %
Extraction speed 3.1 X
Range quality 100.0 %
Test CRC 137170FF
Copy CRC 137170FF
Copy OK
No errors occurred
AccurateRip summary
Track 1 not present in database
Track 2 not present in database
Track 3 not present in database
Track 4 not present in database
Track 5 not present in database
Track 6 not present in database
Track 7 not present in database
Track 8 not present in database
Track 9 not present in database
Track 10 not present in database
Track 11 not present in database
None of the tracks are present in the AccurateRip database
End of status report
==== Log checksum 8A6EB235A5160E066493664757E4A2E40A1FF895E0ACDA7267BFB796521ECCF3 ====
 
Содержание индексной карты (.CUE)
REM DATE 1998
REM DISCID A60DA70B
REM COMMENT "ExactAudioCopy v1.0b3"
CATALOG 5022627006826
PERFORMER "Bobby Carcasses"
TITLE "Jazz Timbero"
FILE "Bobby Carcasses - Jazz Timbero.flac" WAVE
TRACK 01 AUDIO
TITLE "Arian"
PERFORMER "Bobby Carcasses"
ISRC GAQPF9800010
INDEX 01 00:00:00
TRACK 02 AUDIO
TITLE "Quiero Que Comprendas"
PERFORMER "Bobby Carcasses"
ISRC GAQPF9800011
INDEX 00 06:29:02
INDEX 01 06:30:52
TRACK 03 AUDIO
TITLE "Jazz Timbero"
PERFORMER "Bobby Carcasses"
ISRC GAQPF9800012
INDEX 00 11:24:37
INDEX 01 11:27:05
TRACK 04 AUDIO
TITLE "El Manisero"
PERFORMER "Bobby Carcasses"
ISRC GAQPF9800013
INDEX 00 16:47:25
INDEX 01 16:48:55
TRACK 05 AUDIO
TITLE "Misty"
PERFORMER "Bobby Carcasses"
ISRC GAQPF9800014
INDEX 00 20:50:25
INDEX 01 20:52:17
TRACK 06 AUDIO
TITLE "Guajira En Re Menor"
PERFORMER "Bobby Carcasses"
ISRC GAQPF9800015
INDEX 00 27:32:10
INDEX 01 27:34:40
TRACK 07 AUDIO
TITLE "La Sombra De Tu Sonrisa"
PERFORMER "Bobby Carcasses"
ISRC GAQPF9800016
INDEX 00 33:12:60
INDEX 01 33:14:35
TRACK 08 AUDIO
TITLE "Mango Mangue"
PERFORMER "Bobby Carcasses"
ISRC GAQPF9800017
INDEX 00 39:15:45
INDEX 01 39:17:30
TRACK 09 AUDIO
TITLE "No Tiene Letra"
PERFORMER "Bobby Carcasses"
ISRC GAQPF9800018
INDEX 00 43:49:20
INDEX 01 43:50:37
TRACK 10 AUDIO
TITLE "Summertime"
PERFORMER "Bobby Carcasses"
ISRC GAQPF9800019
INDEX 00 48:08:22
INDEX 01 48:11:20
TRACK 11 AUDIO
TITLE "A Brailar El Cubanco"
PERFORMER "Bobby Carcasses"
ISRC GAQPF9800020
INDEX 00 53:09:52
INDEX 01 53:11:20
 
Состав
Personnel:
Bobby Carcassés - vocals (#2-11), recorder (#1), trumpet solo (#7) fliscorno (#1), arranger (#1,3,10,11);
Mario "El Indio" Felix - trumpet solo (#1,10), trumpet (#2,6,8,9);
Julio Padrón - trumpet (#2,6,8,9), trumpet solo (#3,6);
Carlos R. "El Bola" Betancourt - trumpet (#3-5,7,10,11);
Fernando Hurtado - trumpet (#3-5,7,10,11);
William Paredes - trombone (#9);
César López - alto sax (#2,6,8,9) alto solo (#5);
Lázaro Alemán - alto sax (#3-5,7,10,11);
Afredo Thompson - tenor sax (#2,6,8,9);
Rogelio Fusté - tenor sax (#3-5,7,10,11);
Javier Zalba - soprano (#1) & baritone (#3-5,10,11) sax, flute (#1);
Roberto Carcassés - piano (#1,2,6,8,9), arranger (#1,2,6,8,9);
Olivio Pino - piano (#3-5,7,10,11), arranger (#4,5,7);
Chucho Valdés - piano solo (#7,10,11);
Elmer Ferrer - guitar solo (#2,6), guitar (#9), arranger (#2);
Norberto Rodríguez - guitar solo (#4);
Coralia Arregoita - tres (#6);
Descemer Bueno - bass (#1,2,6,8,9), arranger (#2,9);
Javier "Choly" Parets - bass (#3-5,7,10,11);
Ruy López-Nussa - drums (#1);
Leo A. Rodríguez - drums (#2,6,8);
Mandy Martínez - drums (#3-5,7,10,11);
Javi Turull - tablas (#1);
Alejandro Aparicio - congas (#1);
Andrés "El Negrón" Miranda - congas (#2,6,8,9);
Mario "Mayito" Ortega - congas (#3,5,7,10,11), cencerro (#3,5,7,10,11), bongó (#5,7);
Jose Luis "Changuito" Quintana - conga (#3) & pailas (#9,11) solo;
Eladio "Pancho" Terry - chekeré (#2-5,7-11);
Blas Egües - pailas (#3-5,7,10,11);
Lázaro Morua - vocals (#2);
William Torres - vocals (#2);
Maria Cecilia Colón - vocals (#6);
Aurobindo Carcassés - rap (#9);
Josvany Terry - arranger (#6,8).Rec. at ICAIC studios, La Habana, Cuba, in Mar & Apr 1997.
10:17
254
Нет комментариев. Ваш будет первым!