Поиск

(Latin, Downtempo) Da Lata - Prá Manhã - 1998, FLAC (image+.cue), lossless

(Latin, Downtempo) Da Lata - Prá Manhã - 1998, FLAC (image+.cue), lossless
Треклист:
Da Lata / Prá Manhã [cds].(c)1998, FLAC (image+.cue), lossless
Жанр: Latin, Downtempo
Страна-производитель диска: USA
Год издания: 1998
Издатель (лейбл): Palm Pictures
Номер по каталогу: PPCD 7005-2
Страна: GB
Аудиокодек: FLAC (*.flac)
Тип рипа: image+.cue
Битрейт аудио: lossless
Продолжительность: 13:30
Источник (релизер): rip & encoded by fickoyanka
Наличие сканов в содержимом раздачи: да
Треклист:
01. Prá Manhã (Main Rub) 6:13
02. Prá Manhã (Percapella) 5:33
03. Prá Manhã (Dronus Beats) 1:38
 
Лог создания рипа
Exact Audio Copy V1.0 beta 1 from 15. November 2010
EAC extraction logfile from 3. April 2013, 20:58
da lata / pra manha [cds]
Used drive : Optiarc DVD RW AD-5240S Adapter: 1 ID: 1
Read mode : Secure
Utilize accurate stream : Yes
Defeat audio cache : Yes
Make use of C2 pointers : No
Read offset correction : 48
Overread into Lead-In and Lead-Out : No
Fill up missing offset samples with silence : Yes
Delete leading and trailing silent blocks : No
Null samples used in CRC calculations : Yes
Used interface : Installed external ASPI interface
Used output format : Internal WAV Routines
Sample format : 44.100 Hz; 16 Bit; Stereo
TOC of the extracted CD
Track | Start | Length | Start sector | End sector
---------------------------------------------------------
1 | 0:00.00 | 6:15.22 | 0 | 28146
2 | 6:15.22 | 5:35.50 | 28147 | 53321
3 | 11:50.72 | 1:38.53 | 53322 | 60724
Range status and errors
Selected range
Filename C:\~~~~~~~~~~AccurateRip\da lata - pra manha [cds].wav
Peak level 100.0 %
Extraction speed 0.3 X
Range quality 100.0 %
Test CRC 3D2C6B5A
Copy CRC 3D2C6B5A
Copy OK
No errors occurred
AccurateRip summary
Track 1 not present in database
Track 2 not present in database
Track 3 not present in database
None of the tracks are present in the AccurateRip database
End of status report
==== Log checksum 6A4078DAC125B4A8236A92A9F4CB70BB2EA746480C69520319CE4006B525B8CA ====
Доп. информация: Engineer – Tony Econimides*
Mastered By – Jonz*
Producer – Da Lata
Written-By – C. Franck*, L. Chachian*, P. Forge*
11:15
279
Нет комментариев. Ваш будет первым!