Поиск

(Bossa Nova/Samba Jazz/Latin Jazz) VA - Chega De Saudade - Giants Of Jazz CD 53139 - 1993, APE (image+.cue), lossless

(Bossa Nova/Samba Jazz/Latin Jazz) VA - Chega De Saudade - Giants Of Jazz CD 53139 - 1993, APE (image+.cue), lossless
Треклист:
Chega De Saudade - Giants Of Jazz CD 53139
Жанр: Bossa Nova/Samba Jazz/Latin Jazz
Страна-производитель диска: Germany
Год издания: 1993
Издатель (лейбл): Giants Of Jazz
Номер по каталогу: CD 53139
Страна: USA
Аудиокодек: APE (*.ape)
Тип рипа: image+.cue
Битрейт аудио: lossless
Продолжительность: 68'29
Источник (релизер): own rip
Наличие сканов в содержимом раздачи: да
Треклист:
Stan Getz acc. by the Gary McFarland Orchestra with Jim Hall
[1] CHEGA DE SAUDADE (NO MORE BLUES)
[2] BIM BOM
[3] MANHA DE CARNAVAL (MORNING OF THE CARNIVAL)
[4] NOITE TRISTE (NIGHT SADNESS)
Stan Getz & Charlie Byrd
[5] SAMBA DE ÛMA NOTA SO (ONE NOTE SAMBA)
Shorty Rogers and his Orchestra with Laurindo Almeida
[6] SÓ VOCE (ONL Y YOU)
[7] 0 MENINO DESCE DO MORRO (LITTLE BROWN BOY)
[8] SAMBA DO LORINHO (LORITO'S SAMBA)
[9] SÓ UM AMOR (ONL Y ONE LOVE)
[10] CHÓRA TUA TRISTEZA (CRY YOUR SADNESS)
Cannonball Adderley wilh Sergio Mendes and Bud Shank
[11] CORCOVADO (OUIET NIGHTS OF OUIET STARS)
[12] CLOUDS
[13] GROOVY SAMBA
[14] SAMBOP
Shorty Rogers and his Orchestra wilh Laurindo Almeida
[15] 0 AMORE E A ROSA (LOVE IS A ROSE)
Dave Brubeck with Paul Desmond
[16] BOSSA NOVA U.S.A.
 
Лог создания рипа
Exact Audio Copy V1.0 beta 3 from 29. August 2011
EAC extraction logfile from 28. February 2013, 19:51
Giants of Jazz / Chega De Saudade ( Stan Getz, Cannonball Adderly, Shorty Rogers etc.)
Used drive : HL-DT-STDVD-RAM GSA-H55N Adapter: 0 ID: 0
Read mode : Secure
Utilize accurate stream : Yes
Defeat audio cache : Yes
Make use of C2 pointers : No
Read offset correction : 102
Overread into Lead-In and Lead-Out : No
Fill up missing offset samples with silence : Yes
Delete leading and trailing silent blocks : No
Null samples used in CRC calculations : Yes
Used interface : Native Win32 interface for Win NT & 2000
Used output format : Monkey's Audio Lossless Encoder
Selected bitrate : Fast Lossless Compression
Quality : High
Add ID3 tag : Yes
Command line compressor : C:\Program Files\Exact Audio Copy\Monkeys Audio\MAC.exe
Additional command line options : %dest% -t "Artist=%artist%" -t "Title=%title%" -t "Album=%albumtitle%" -t "Year=%year%" -t "Track=%tracknr%" -t "Genre=%genre%" mac.exe %source% %dest% -c3000 -v
TOC of the extracted CD
Track | Start | Length | Start sector | End sector
---------------------------------------------------------
1 | 0:00.00 | 4:18.22 | 0 | 19371
2 | 4:18.22 | 4:31.63 | 19372 | 39759
3 | 8:50.10 | 5:49.40 | 39760 | 65974
4 | 14:39.50 | 4:57.65 | 65975 | 88314
5 | 19:37.40 | 6:13.65 | 88315 | 116354
6 | 25:51.30 | 2:30.55 | 116355 | 127659
7 | 28:22.10 | 2:23.47 | 127660 | 138431
8 | 30:45.57 | 2:06.65 | 138432 | 147946
9 | 32:52.47 | 1:47.33 | 147947 | 156004
10 | 34:40.05 | 3:22.42 | 156005 | 171196
11 | 38:02.47 | 6:42.15 | 171197 | 201361
12 | 44:44.62 | 4:49.33 | 201362 | 223069
13 | 49:34.20 | 4:58.02 | 223070 | 245421
14 | 54:32.22 | 3:33.35 | 245422 | 261431
15 | 58:05.57 | 3:03.70 | 261432 | 275226
16 | 61:09.52 | 7:22.20 | 275227 | 308396
Range status and errors
Selected range
Filename E:\Muziek\Giants of Jazz - Chega De Saudade ( Stan Getz, Cannonball Adderly, Shorty Rogers etc.).wav
Peak level 87.5 %
Extraction speed 3.1 X
Range quality 100.0 %
Copy CRC 3B395FEC
Copy OK
No errors occurred
AccurateRip summary
Track 1 cannot be verified as accurate (confidence 3) [6DFB55B8], AccurateRip returned [38917F94] (AR v2)
Track 2 cannot be verified as accurate (confidence 3) [6374DDA4], AccurateRip returned [650A3174] (AR v2)
Track 3 cannot be verified as accurate (confidence 3) [2E25138C], AccurateRip returned [12E16AF0] (AR v2)
Track 4 cannot be verified as accurate (confidence 3) [3758AFE5], AccurateRip returned [B18E3911] (AR v2)
Track 5 cannot be verified as accurate (confidence 3) [9A7DD090], AccurateRip returned [A57812D7] (AR v2)
Track 6 cannot be verified as accurate (confidence 3) [2E6DE504], AccurateRip returned [10E1E4D5] (AR v2)
Track 7 cannot be verified as accurate (confidence 3) [32CBC002], AccurateRip returned [7AFAEA91] (AR v2)
Track 8 cannot be verified as accurate (confidence 3) [ECB9CDBF], AccurateRip returned [08707434] (AR v2)
Track 9 cannot be verified as accurate (confidence 3) [17DDC5F1], AccurateRip returned [3CA02A10] (AR v2)
Track 10 cannot be verified as accurate (confidence 3) [EC3E6CB0], AccurateRip returned [8AB2BF70] (AR v2)
Track 11 cannot be verified as accurate (confidence 3) [45808F00], AccurateRip returned [CF47A99B] (AR v2)
Track 12 cannot be verified as accurate (confidence 3) [A5DAF0A9], AccurateRip returned [62220428] (AR v2)
Track 13 cannot be verified as accurate (confidence 3) [E62BC213], AccurateRip returned [F27EB7AD] (AR v2)
Track 14 cannot be verified as accurate (confidence 3) [6C1B7298], AccurateRip returned [D0186F8D] (AR v2)
Track 15 cannot be verified as accurate (confidence 3) [F0E26ECD], AccurateRip returned [5706FA9D] (AR v2)
Track 16 cannot be verified as accurate (confidence 3) [4D5AC023], AccurateRip returned [C5883EE3] (AR v2)
No tracks could be verified as accurate
You may have a different pressing from the one(s) in the database
End of status report
---- CUETools DB Plugin V2.1.3
[CTDB TOCID: lBLk6tpGWjanJE_E_NNdFLYLxog-] found, Submit result: lBLk6tpGWjanJE_E_NNdFLYLxog- has been uploaded
[269a5aa9] (1/1) No match
==== Log checksum 4A58488305917EB76C0743A6BFA5DA90D54709F8C4DA3ECA984A7DEA07EDDAE8 ====
 
Содержание индексной карты (.CUE)
REM GENRE Jazz
REM DATE 1993
REM DISCID FB100F10
REM COMMENT "ExactAudioCopy v1.0b3"
PERFORMER "Giants of Jazz"
TITLE "Chega De Saudade ( Stan Getz, Cannonball Adderly, Shorty Rogers etc.)"
FILE "Giants of Jazz - Chega De Saudade ( Stan Getz, Cannonball Adderly, Shorty Rogers etc.).ape" WAVE
TRACK 01 AUDIO
TITLE "Getz, Stan & the Gary McFarland Orchestra / Chega De Saudade (No More Blues)"
PERFORMER "Giants of Jazz"
INDEX 01 00:00:00
TRACK 02 AUDIO
TITLE "Getz, Stan & the Gary McFarland Orchestra / Bim Bom"
PERFORMER "Giants of Jazz"
INDEX 01 04:18:22
TRACK 03 AUDIO
TITLE "Getz, Stan & the Gary McFarland Orchestra / Manha De Carnaval (Morning of the..."
PERFORMER "Giants of Jazz"
INDEX 01 08:50:10
TRACK 04 AUDIO
TITLE "Getz, Stan & the Gary McFarland Orchestra / Noite Triste (Night Sadness)"
PERFORMER "Giants of Jazz"
INDEX 01 14:39:50
TRACK 05 AUDIO
TITLE "Getz, Stan & Charlie Byrd / Samba De Uma Nota So (One Note Samba)"
PERFORMER "Giants of Jazz"
INDEX 01 19:37:40
TRACK 06 AUDIO
TITLE "Rogers, Shorty & his Orchestra with Laurindo Almeida / So Voce (Only You)"
PERFORMER "Giants of Jazz"
INDEX 01 25:51:30
TRACK 07 AUDIO
TITLE "Rogers, Shorty & his Orchestra with Laurindo Almeida / O Menino Desce Do Morr..."
PERFORMER "Giants of Jazz"
INDEX 01 28:22:10
TRACK 08 AUDIO
TITLE "Rogers, Shorty & his Orchestra with Laurindo Almeida / Samba Do Lorinho"
PERFORMER "Giants of Jazz"
INDEX 01 30:45:57
TRACK 09 AUDIO
TITLE "Rogers, Shorty & his Orchestra with Laurindo Almeida / So Um Amor (Only One L..."
PERFORMER "Giants of Jazz"
INDEX 01 32:52:47
TRACK 10 AUDIO
TITLE "Rogers, Shorty & his Orchestra with Laurindo Almeida / Chora Tua Tristeza (Cr..."
PERFORMER "Giants of Jazz"
INDEX 01 34:40:05
TRACK 11 AUDIO
TITLE "Adderley, Cannonball with Sergio Mendes and Bud Shank / Corcovado (Quiet Nigh..."
PERFORMER "Giants of Jazz"
INDEX 01 38:02:47
TRACK 12 AUDIO
TITLE "Adderley, Cannonball with Sergio Mendes and Bud Shank / Clouds"
PERFORMER "Giants of Jazz"
INDEX 01 44:44:62
TRACK 13 AUDIO
TITLE "Adderley, Cannonball with Sergio Mendes and Bud Shank / Groovy Samba"
PERFORMER "Giants of Jazz"
INDEX 01 49:34:20
TRACK 14 AUDIO
TITLE "Adderley, Cannonball with Sergio Mendes and Bud Shank / Sambop"
PERFORMER "Giants of Jazz"
INDEX 01 54:32:22
TRACK 15 AUDIO
TITLE "Rogers, Shorty & his Orchestra with Laurindo Almeida / O Amore E A Rosa (Love..."
PERFORMER "Giants of Jazz"
INDEX 01 58:05:57
TRACK 16 AUDIO
TITLE "Brubeck, Dave & Paul Desmond / Bossa Nova U.S.A."
PERFORMER "Giants of Jazz"
INDEX 01 61:09:52
 
Лог проверки качества
[CUETools log; Date: 3-4-2013 21:02:11; Version: 2.1.4]
[CTDB TOCID: lBLk6tpGWjanJE_E_NNdFLYLxog-] found.
[ CTDBID ] Status
[269a5aa9] (1/2) No match
[3c571d9e] (1/2) Accurately ripped
Track | CTDB Status
1 | (1/2) Accurately ripped
2 | (1/2) Accurately ripped
3 | (1/2) Accurately ripped
4 | (1/2) Accurately ripped
5 | (1/2) Accurately ripped
6 | (1/2) Accurately ripped
7 | (1/2) Accurately ripped
8 | (1/2) Accurately ripped
9 | (1/2) Accurately ripped
10 | (1/2) Accurately ripped
11 | (1/2) Accurately ripped
12 | (1/2) Accurately ripped
13 | (1/2) Accurately ripped
14 | (1/2) Accurately ripped
15 | (1/2) Accurately ripped
16 | (1/2) Accurately ripped
[AccurateRip ID: 00277548-01d3cbbd-fb100f10] found.
Track [ CRC | V2 ] Status
01 [985098c3|6dfb55b8] (0+0/7) No match
02 [1da58ceb|6374dda4] (0+0/7) No match
03 [68769a1b|2e25138c] (0+0/7) No match
04 [9f02bbff|3758afe5] (0+0/7) No match
05 [269049b9|9a7dd090] (0+0/5) No match
06 [470e1903|2e6de504] (0+0/7) No match
07 [83915c56|32cbc002] (0+0/7) No match
08 [c06be2ca|ecb9cdbf] (0+0/7) No match
09 [8472fe40|17ddc5f1] (0+0/7) No match
10 [a85b2b81|ec3e6cb0] (0+0/7) No match
11 [ffe87ed3|45808f00] (0+0/5) No match
12 [21e60de3|a5daf0a9] (0+0/7) No match
13 [51caf038|e62bc213] (0+0/5) No match
14 [72744733|6c1b7298] (0+0/7) No match
15 [39b41375|f0e26ecd] (0+0/7) No match
16 [0e134794|4d5ac023] (0+0/5) No match
Track Peak [ CRC32 ] [W/O NULL] [ LOG ]
-- 87,5 [3B395FEC] [C1D697C8] CRC32
01 77,9 [AA8CE540] [31A66285]
02 79,1 [7BFD2B24] [7E0A0A5C]
03 72,9 [A4F3702D] [456971C0]
04 72,2 [FEAE5BC2] [575AA536]
05 64,4 [7BE03725] [10E83113]
06 87,5 [65B9B45E] [F2DE1D7F]
07 81,3 [02838632] [59B90E5E]
08 65,0 [EE02CEFA] [5A2C32F4]
09 66,2 [11B97726] [14FB2FC8]
10 69,4 [EA93CF83] [24FC918B]
11 61,1 [4FF0D2A0] [378984D7]
12 54,2 [5C562904] [A346877E]
13 66,2 [E837AB64] [D9F80F83]
14 62,7 [F276519A] [D8D09FB5]
15 62,9 [0544B1F9] [50DEE8FE]
16 59,1 [F14BBE06] [80B2F336]
 
Об исполнителе (группе)
SAMBA DE UMA NOTA SO (ONE NOTE SAMBA)
Pierce Hall, All Souls Unitarian Church, Washington D.C.,
February 13, 1962
Slan Getz & Charlie Byrd
Stan Getz (ts) Charlie Byrd, Gene Byrd (g) Keeter Betts (b) Buddy Deppensehmidt, Bill Reichenbach (perc)
SÓ VOCE
O MENINO DESCE DO MORRO (L1TTLE BROWN BOY)
SAMBA DO LORINHO (LORITO'S SAMBA)
SÓ UM AMOR (ONL Y ONE LOVE)
CHÓRA TUA TRISTEZA
O AMORE E A ROSA (LOVE IS A ROSE)
June, 12-14, 1962
Shorty Rogers and his Orchestra
Shorty Rogers (flugelhorn) Joe Burnett, Oliver Mitchell (tp) Bud Shank, Paul Horn (as/fl) Riehard Leith, Kenneth Shroyer (tb)
Pete Jolly (p) Laurindo Almeida (g) Joe Mon­dragon (b) Milt Holland, Larry Bunker, Shelly Manne, Emil Riehards, Chico Guerrero (perc)
CHEGA DE SAUDADE (NO MORE BLUES)
BIM BOM
NOITE TRISTE (NIGHT SADNESS)
New York, August 27, 1962
Slan Gelz (ts) acc. by The Gary McFarland Orchestra
Doc Severinsen, Bernie Glow, Clark Terry (tp) Bob Brook­meyer, Tony Studd (tb) Ray Alonge (french horn)
Ray Bee­kenstein, Babe Clark (cl) Jerry Sanlino, Ed Caine (fl) Romeo Penque (fl/b-cl)
Hank Jones (p) Jim Hall (g) Tommy Williams (b) Johnny Rae (d) Carmen Costa (cabassa) Jose Paulo (tambourine) Gary McFarland (arr/cond)
MANHA DE CARNAVAL (MORNING OF THE CARNIVAL)
New Vork, August 28, 1962
Joe Ferrante, Nick Travis (p) and Willie Dennis (tb) replace Bernie Glow, Clark Terry and Bob Brookmeyer.
Walt Levinsky (cl) replaces Jerry Sanfino (fl). Rest same.
CORCOVADO (OUIET NIGHTS OF QUIET STARS)
CLOUDS
GROOVY SAMBA
New Vork, December, 1962
Cannonball Adderley (as) Sergio Mendes (p) Durval Ferreira (g) Octavio Bielly Jr. (b) Dom Um Romao (d)
SAMBOP
New Vork, December, 1962
Pedro Paulo (tp) and Paulo Moura (as) added. Rest same.
BOSSA NOVA U.S.A.
Carnegie Hall, New Vork, February 22, 1963
The Dave Brubeck Ouartet
Dave Brubeck (p) Paul Desmond (as) Gene Wright (b) Joe Morello (d)
10:15
278
Нет комментариев. Ваш будет первым!