Поиск

(World Fusion, Latin Jazz) The New Dave Pike Set - Salomao {1972} - 2011, FLAC (tracks+.cue), lossless

(World Fusion, Latin Jazz) The New Dave Pike Set - Salomao {1972} - 2011, FLAC (tracks+.cue), lossless
Треклист:
♦ The New Dave Pike Set - Salomao {1972} ♦
Жанр: World Fusion, Latin Jazz
Страна-производитель диска: EU
Год издания: 2011
Издатель (лейбл): Universal
Номер по каталогу: 06025 2545227
Аудиокодек: FLAC (*.flac)
Тип рипа: tracks+.cue
Битрейт аудио: lossless
Продолжительность: 00:43:46
Источник (релизер): jlgt
Наличие сканов в содержимом раздачи: да
Треклист:
01. Salomao [13:32]
02. Berimbass [05:40]
03. An Evening With Vincent Van Ritz [04:03]
04. 5 Ritmos Do Bahia-Samba de Roda-Dave [05:13]
05. 5 Ritmos Do Bahia-Baion-Eberhard [04:14]
06. 5 Ritmos Do Bahia-Baiafrock-Volker [03:37]
07. 5 Ritmos Do Bahia-Marc [02:06]
08. 5 Ritmos Do Bahia-Baiafro [05:18]
 
Лог создания рипа
Exact Audio Copy V1.0 beta 2 from 29. April 2011
EAC extraction logfile from 26. May 2012, 3:12
The New Dave Pike Set / Salomao
Used drive : PLEXTOR DVDR PX-L890SA Adapter: 2 ID: 1
Read mode : Secure
Utilize accurate stream : Yes
Defeat audio cache : Yes
Make use of C2 pointers : No
Read offset correction : 6
Overread into Lead-In and Lead-Out : No
Fill up missing offset samples with silence : Yes
Delete leading and trailing silent blocks : No
Null samples used in CRC calculations : Yes
Used interface : Native Win32 interface for Win NT & 2000
Gap handling : Appended to previous track
Used output format : User Defined Encoder
Selected bitrate : 256 kBit/s
Quality : High
Add ID3 tag : No
Command line compressor : C:\Program Files (x86)\Exact Audio Copy\FLAC\FLAC.EXE
Additional command line options : -8 -V -T "ARTIST=%artist%" -T "TITLE=%title%" -T "ALBUM=%albumtitle%" -T "DATE=%year%" -T "TRACKNUMBER=%tracknr%" -T "TOTALTRACKS=%numtracks%" -T "GENRE=%genre%" -T "ALBUMARTIST=%albumartist%" -T "ALBUM ARTIST=%albumartist%
TOC of the extracted CD
Track | Start | Length | Start sector | End sector
---------------------------------------------------------
1 | 0:00.00 | 13:32.43 | 0 | 60942
2 | 13:32.43 | 5:40.00 | 60943 | 86442
3 | 19:12.43 | 4:03.02 | 86443 | 104669
4 | 23:15.45 | 5:13.27 | 104670 | 128171
5 | 28:28.72 | 4:14.33 | 128172 | 147254
6 | 32:43.30 | 3:37.69 | 147255 | 163598
7 | 36:21.24 | 2:06.39 | 163599 | 173087
8 | 38:27.63 | 5:18.41 | 173088 | 196978
Track 1
Filename F:\Flac Rips\01 - Salomao.wav
Pre-gap length 0:00:02.00
Peak level 99.1 %
Extraction speed 4.3 X
Track quality 100.0 %
Test CRC D5CEDAD2
Copy CRC D5CEDAD2
Accurately ripped (confidence 2) [D47F6AF9] (AR v2)
Copy OK
Track 2
Filename F:\Flac Rips\02 - Berimbass.wav
Pre-gap length 0:00:02.29
Peak level 99.1 %
Extraction speed 4.9 X
Track quality 100.0 %
Test CRC CFFB6507
Copy CRC CFFB6507
Accurately ripped (confidence 2) [28D16852] (AR v2)
Copy OK
Track 3
Filename F:\Flac Rips\03 - An Evening With Vincent Van Ritz.wav
Pre-gap length 0:00:02.58
Peak level 93.6 %
Extraction speed 4.1 X
Track quality 99.9 %
Test CRC 61E12627
Copy CRC 61E12627
Accurately ripped (confidence 2) [37DBF64A] (AR v2)
Copy OK
Track 4
Filename F:\Flac Rips\04 - 5 Ritmos Do Bahia-Samba de Roda-Dave.wav
Pre-gap length 0:00:01.70
Peak level 99.4 %
Extraction speed 4.6 X
Track quality 99.9 %
Test CRC 9CE4762E
Copy CRC 9CE4762E
Accurately ripped (confidence 2) [D86B6D03] (AR v2)
Copy OK
Track 5
Filename F:\Flac Rips\05 - 5 Ritmos Do Bahia-Baion-Eberhard.wav
Peak level 99.2 %
Extraction speed 5.7 X
Track quality 100.0 %
Test CRC CC0E8B37
Copy CRC CC0E8B37
Accurately ripped (confidence 2) [BCC23769] (AR v2)
Copy OK
Track 6
Filename F:\Flac Rips\06 - 5 Ritmos Do Bahia-Baiafrock-Volker.wav
Peak level 99.9 %
Extraction speed 5.8 X
Track quality 100.0 %
Test CRC 815C8D45
Copy CRC 815C8D45
Accurately ripped (confidence 2) [EA2BBF5F] (AR v2)
Copy OK
Track 7
Filename F:\Flac Rips\07 - 5 Ritmos Do Bahia-Marc.wav
Peak level 99.6 %
Extraction speed 3.7 X
Track quality 99.9 %
Test CRC 5EA1572C
Copy CRC 5EA1572C
Accurately ripped (confidence 2) [23204D4A] (AR v2)
Copy OK
Track 8
Filename F:\Flac Rips\08 - 5 Ritmos Do Bahia-Baiafro.wav
Peak level 99.8 %
Extraction speed 6.5 X
Track quality 100.0 %
Test CRC AE0D8927
Copy CRC AE0D8927
Accurately ripped (confidence 2) [0FA1E7C7] (AR v2)
Copy OK
All tracks accurately ripped
No errors occurred
End of status report
==== Log checksum D877267770DD47C8FB7A41E95A18F3BAB466DF77DD0C1CE39EDC7C71CB98619C ====
 
Содержание индексной карты (.CUE)
REM GENRE "Latin Jazz"
REM DATE 1972
REM DISCID 680A4208
REM COMMENT "ExactAudioCopy v1.0b2"
PERFORMER "The New Dave Pike Set"
TITLE "Salomao"
FILE "01 - Salomao.wav" WAVE
TRACK 01 AUDIO
TITLE "Salomao"
PERFORMER "The New Dave Pike Set"
INDEX 01 00:00:00
TRACK 02 AUDIO
TITLE "Berimbass"
PERFORMER "The New Dave Pike Set"
INDEX 00 13:30:14
FILE "02 - Berimbass.wav" WAVE
INDEX 01 00:00:00
TRACK 03 AUDIO
TITLE "An Evening With Vincent Van Ritz"
PERFORMER "The New Dave Pike Set"
INDEX 00 05:37:17
FILE "03 - An Evening With Vincent Van Ritz.wav" WAVE
INDEX 01 00:00:00
TRACK 04 AUDIO
TITLE "5 Ritmos Do Bahia-Samba de Roda-Dave"
PERFORMER "The New Dave Pike Set"
INDEX 00 04:01:07
FILE "04 - 5 Ritmos Do Bahia-Samba de Roda-Dave.wav" WAVE
INDEX 01 00:00:00
FILE "05 - 5 Ritmos Do Bahia-Baion-Eberhard.wav" WAVE
TRACK 05 AUDIO
TITLE "5 Ritmos Do Bahia-Baion-Eberhard"
PERFORMER "The New Dave Pike Set"
INDEX 01 00:00:00
FILE "06 - 5 Ritmos Do Bahia-Baiafrock-Volker.wav" WAVE
TRACK 06 AUDIO
TITLE "5 Ritmos Do Bahia-Baiafrock-Volker"
PERFORMER "The New Dave Pike Set"
INDEX 01 00:00:00
FILE "07 - 5 Ritmos Do Bahia-Marc.wav" WAVE
TRACK 07 AUDIO
TITLE "5 Ritmos Do Bahia-Marc"
PERFORMER "The New Dave Pike Set"
INDEX 01 00:00:00
FILE "08 - 5 Ritmos Do Bahia-Baiafro.wav" WAVE
TRACK 08 AUDIO
TITLE "5 Ritmos Do Bahia-Baiafro"
PERFORMER "The New Dave Pike Set"
INDEX 01 00:00:00
 
Состав
Personnel:
The New Dave Pike Set:
Dave Pike - vibes
Eberhard Weber - bass
Marc Hellman - drums
Volker Kriegel - guitar
Grupo Baiafro:
Djalma Corrêa - percussion
Edson Emetério de Sant'Ana - atabaques, surdo
Onias Camardelli - berimbau, atabaques, pandeiro
11:14
315
Нет комментариев. Ваш будет первым!