Поиск

(Latin jazz, Cuban Jazz) Maraca - ¡Sonando! - 1998, APE (image+.cue), lossless

Maraca / ¡Sonando!
Жанр: Latin jazz, Cuban Jazz
Год издания диска: 1998
Издатель (лейбл): Ahí-Namá
Номер по каталогу: 1018
Страна: Havana, Cuba
Аудиокодек: APE (*.ape)
Тип рипа: image+.cue
Битрейт аудио: lossless
Продолжительность: 01:04:32
Источник (релизер): dreadbull
Наличие сканов в содержимом раздачи: да
Треклист:
01. Sonando [05:47]
02. Me gusta mas el son [05:02]
03. Maracas Tumbao [04:06]
04. La bomba [04:58]
05. Ven aqui, a la realidad [03:24]
06. Los tamalitos de Olga [04:52]
07. Mambo Jazz Plaza [06:41]
08. Quiero a mi guajira [05:07]
09. Ven, vamo' a bailar [05:07]
10. O.K. Santo Domingo [05:40]
11. Vale Todo [05:51]
12. Selva [07:50]
 
Лог создания рипа
EAC extraction logfile from 9. May 2009, 6:25 for CD
Maraca / Sonando
Used drive : PLEXTOR DVDR PX-750A Adapter: 0 ID: 1
Read mode : Secure with NO C2, accurate stream, disable cache
Read offset correction : 102
Overread into Lead-In and Lead-Out : No
Used output format : Internal WAV Routines
44.100 Hz; 16 Bit; Stereo
Other options :
Fill up missing offset samples with silence : Yes
Delete leading and trailing silent blocks : No
Installed external ASPI interface
Range status and errors
Selected range
Filename E:\Donkey Files\Maraca - Sonando! 1998\CDImage.wav
Peak level 98.9 %
Range quality 100.0 %
CRC BC58E7DE
Copy OK
No errors occured
End of status report
 
Содержание индексной карты (.CUE)
PERFORMER "Maraca"
TITLE "Sonando"
FILE "CDImage.wav" WAVE
TRACK 01 AUDIO
TITLE "Sonando"
PERFORMER "Maraca"
INDEX 01 00:00:00
TRACK 02 AUDIO
TITLE "Me gusta mas el son"
PERFORMER "Maraca"
INDEX 01 05:47:11
TRACK 03 AUDIO
TITLE "Maracas Tumbao"
PERFORMER "Maraca"
INDEX 01 10:49:42
TRACK 04 AUDIO
TITLE "La bomba"
PERFORMER "Maraca"
INDEX 01 14:55:70
TRACK 05 AUDIO
TITLE "Ven aqui, a la realidad"
PERFORMER "Maraca"
INDEX 01 19:54:40
TRACK 06 AUDIO
TITLE "Los tamalitos de Olga"
PERFORMER "Maraca"
INDEX 01 23:18:74
TRACK 07 AUDIO
TITLE "Mambo Jazz Plaza"
PERFORMER "Maraca"
INDEX 01 28:11:19
TRACK 08 AUDIO
TITLE "Quiero a mi guajira"
PERFORMER "Maraca"
INDEX 01 34:53:12
TRACK 09 AUDIO
TITLE "Ven, vamo' a bailar"
PERFORMER "Maraca"
INDEX 01 40:01:05
TRACK 10 AUDIO
TITLE "O.K. Santo Domingo"
PERFORMER "Maraca"
INDEX 01 45:08:61
TRACK 11 AUDIO
TITLE "Vale Todo"
PERFORMER "Maraca"
INDEX 01 50:49:36
TRACK 12 AUDIO
TITLE "Selva"
PERFORMER "Maraca"
INDEX 01 56:41:25
 
Состав
Maraca y Otra Visión:
Orlando "Maraca" Valle, Céline Chauveau (flute);
Luis Manuel Sánchez (saxophone);
Alexander Brown (trumpet);
Lázaro Rivero "El Fino" (bass);
Juan Carlos Rojas "El Peje" (drums, paila, percussion);
Yaroldy Abreu (congas).
Los Munequitos De Matanzas:
Moisés "Yumurí" Valle, Rolo Martinez, Aramis "El Niño" (vocals).
Additional personnel:
Compay Segundo, Pio Leyva, Lino Borges (vocals);
Raul Acea (guitar);
Pancho Amat (tres);
Jesús Alfonso (quinto);
Pedro Valle (alto sax);
Osvaldo Valle, David Sánchez (tenor sax);
Angel González "Fello", Reinaldo Melían "Molote" (trumpet);
Oswan Ponciano, Alfaro García (piano);
Jesús Madera (bongo, guiro, campana).
23:44
337
Нет комментариев. Ваш будет первым!