Поиск

(Contemporary Jazz) Joao Paulo, Paulo Curado, Bruno Pedroso - As Sete Ilhas De Lisboa - 2003, FLAC (image+.cue), lossless

(Contemporary Jazz) Joao Paulo, Paulo Curado, Bruno Pedroso - As Sete Ilhas De Lisboa - 2003, FLAC (image+.cue), lossless
Треклист:
Joao Paulo, Paulo Curado, Bruno Pedroso / As Sete Ilhas De Lisboa
Жанр: Contemporary Jazz
Страна-производитель диска: Portugal
Год издания диска: 2003
Издатель (лейбл): Clean Feed
Номер по каталогу: CF013CD
Аудиокодек: FLAC (*.flac)
Тип рипа: image+.cue
Битрейт аудио: lossless
Продолжительность: 66:51
Источник (релизер): cd
Наличие сканов в содержимом раздачи: нет
Треклист:
1 Barco A Vista 10:43
2 Bi Fri Nalmente 9:52
3 Daqui Ve-Se A Ilha Da Graca 15:30
4 Este Castelo De Areia 4:54
5 Fumarada 7:01
6 Nao Ha Nada Que Se Possa Fazer 8:22
7 Vamos La Por Esta Coisa A Funcionar 10:23
 
Лог создания рипа
Exact Audio Copy V1.0 beta 2 from 29. April 2011
EAC extraction logfile from 9. August 2011, 13:30
Joao Paulo - Paulo Curado - Bruno Pedroso / As Sete Ilhas de Lisboa
Used drive : Optiarc DVD RW AD-7170A Adapter: 0 ID: 0
Read mode : Secure
Utilize accurate stream : Yes
Defeat audio cache : Yes
Make use of C2 pointers : No
Read offset correction : 48
Overread into Lead-In and Lead-Out : No
Fill up missing offset samples with silence : Yes
Delete leading and trailing silent blocks : No
Null samples used in CRC calculations : Yes
Used interface : Native Win32 interface for Win NT & 2000
Used output format : User Defined Encoder
Selected bitrate : 320 kBit/s
Quality : High
Add ID3 tag : No
Command line compressor : C:\Program Files\Exact Audio Copy\Flac\flac.exe
Additional command line options : -V -8 -T "Date=%year%" -T "Genre=%genre%" %source%
TOC of the extracted CD
Track | Start | Length | Start sector | End sector
---------------------------------------------------------
1 | 0:00.00 | 15:29.73 | 0 | 69747
2 | 15:29.73 | 4:54.48 | 69748 | 91845
3 | 20:24.46 | 9:52.69 | 91846 | 136314
4 | 30:17.40 | 7:01.67 | 136315 | 167956
5 | 37:19.32 | 10:43.43 | 167957 | 216224
6 | 48:03.00 | 8:23.34 | 216225 | 253983
7 | 56:26.34 | 10:23.22 | 253984 | 300730
Range status and errors
Selected range
Filename C:\EAC\Downloads\Joao Paulo - Paulo Curado - Bruno Pedroso - As Sete Ilhas de Lisboa.wav
Peak level 100.0 %
Extraction speed 5.1 X
Range quality 100.0 %
Test CRC A66BB338
Copy CRC A66BB338
Copy OK
No errors occurred
AccurateRip summary
Track 1 not present in database
Track 2 not present in database
Track 3 not present in database
Track 4 not present in database
Track 5 not present in database
Track 6 not present in database
Track 7 not present in database
None of the tracks are present in the AccurateRip database
End of status report
==== Log checksum C741875DA1992D163E8AFFC1A1651B2A38D2E0CA47EAA491A2C821D3FE0099F7 ====
 
Содержание индексной карты (.CUE)
REM GENRE Jazz
REM DATE 2003
REM DISCID 630FA907
REM COMMENT "ExactAudioCopy v1.0b2"
PERFORMER "Joao Paulo - Paulo Curado - Bruno Pedroso"
TITLE "As Sete Ilhas de Lisboa"
FILE "Joao Paulo - Paulo Curado - Bruno Pedroso - As Sete Ilhas de Lisboa.flac" WAVE
TRACK 01 AUDIO
TITLE "Daqui ve-se a Ilha da Graca"
PERFORMER "Joao Paulo - Paulo Curado - Bruno Pedroso"
ISRC 000000000000
INDEX 01 00:00:00
TRACK 02 AUDIO
TITLE "Este Castelo de Areia"
PERFORMER "Joao Paulo - Paulo Curado - Bruno Pedroso"
ISRC 000000000000
INDEX 00 15:29:37
INDEX 01 15:29:73
TRACK 03 AUDIO
TITLE "Bi Fri Nalmente"
PERFORMER "Joao Paulo - Paulo Curado - Bruno Pedroso"
ISRC 000000000000
INDEX 00 20:24:10
INDEX 01 20:24:46
TRACK 04 AUDIO
TITLE "Fumarada"
PERFORMER "Joao Paulo - Paulo Curado - Bruno Pedroso"
ISRC 000000000000
INDEX 00 30:17:03
INDEX 01 30:17:40
TRACK 05 AUDIO
TITLE "Barco a vista"
PERFORMER "Joao Paulo - Paulo Curado - Bruno Pedroso"
ISRC 000000000000
INDEX 00 37:18:71
INDEX 01 37:19:32
TRACK 06 AUDIO
TITLE "Nao ha nada que se possa fazer"
PERFORMER "Joao Paulo - Paulo Curado - Bruno Pedroso"
ISRC 000000000000
INDEX 00 48:02:39
INDEX 01 48:03:00
TRACK 07 AUDIO
TITLE "Vamos la por esta coisa a funcionar"
PERFORMER "Joao Paulo - Paulo Curado - Bruno Pedroso"
ISRC 000000000000
INDEX 00 56:25:73
INDEX 01 56:26:34
 
Состав
Drums – Bruno Pedroso
Piano – Joao Paulo
Saxophone – Paulo Curado
23:44
353
Нет комментариев. Ваш будет первым!