Поиск

(Latin Jazz, Cuba) VA - Music That Inspired Buena Vista Social Club - 2009, FLAC (tracks+.cue), lossless

(Latin Jazz, Cuba) VA - Music That Inspired Buena Vista Social Club - 2009, FLAC (tracks+.cue), lossless
Треклист:
VA - Music That Inspired Buena Vista Social Club
Жанр: Latin Jazz, Cuba
Год выпуска диска: 2009
Производитель диска: UK
Аудио кодек: FLAC
Тип рипа: tracks+.cue
Битрейт аудио: lossless
Продолжительность: 146 min
 
Disc 1
1. Ruben Gonzalez - El Yayabo
2. Compay Segundo - Me diras que sabroso
3. Ibrahim Ferrer - El platanal de Bartolo
4. Omara Portuondo (con Cuarteto d’Aida) - Oye mi ritmo
5. Abelardo Barroso - En Guantanamo
6. Ruben Gonzalez - El amor es una cosa esplendosa
7. Pio Leyva - Comiendo y cantando
8. Conjunto Roberto Faz - Suena tu bongo
9. Ibrahim Ferrer - Bodas de oro
10. Ruben Gonzalez - Nuestras vidas/Mi corazon es para ti
11. La Sonora Matancera - Eso se hincha
12. Pio Leyva - Macorina
13. Celio Gonzalez - Don Pantaleon
14. Ruben Gonzalez - Nosotros
15. El Negro Peregrino - El jarabe loco
16. Celia Cruz - Goza negra
17. Alfredito Valdez and Trio Caney - La campina cubana
18. Chapotin and His Estrellas - Ya tu lo ves, campeon
19. Pio Leyva - Recuerdo de Varadero
20. Orlando Contreras - Tabelen
21. Celia Cruz - Ven, Bernabe
22. Beny More - Soy del mote
23. Raul Diaz - Como le decia
24. Ruben Gonzalez - Los tres violines
25. Tito Puente - Candido
 
Disc 2
1. Celia Cruz - Juancito Trucupey
2. Machito - Zambia
3. Benny Moré - Francisco guayabal
4. Aldemaro Romero - Mango mangue
5. Tito Puente - Tú no eres nadie
6. Chano Pozo y James Moody - Tin tin deo
7. Lecuona Cuban Boys - Rumbas cubanas
8. Desi Arnaz - Babalú
9. Bebo Valdés y Sabor de Cuba - Tirando tiro
10. Vincentino Valdés - Cao cao maní picao
11. Pérez Prado - Patricia
12. Mario Bauzá y Machito - Canción
13. Chano Pozo y Machito - Porque tú sufres
14. Celia Cruz - Óyela, gózala
15. Benny Moré - Maracaibo oriental
16 Lecuona Cuban Boys - Mosaico
17. Vicentino Valdés y Tito Puente - No lo hago más
18. Ángel Rolando - Toque oyó
19. Mario Bauza y Machito - Asia Minor
20. Desi Arnaz - Tico tico
21. Celia Cruz - Burundanga
22. Bebo Valdés - No merengues
23. Pérez Prado - Mambo no.5
24. Benny Moré y su All Star Cuban Orchestra - ¡Qué bueno baila usted!
25. Tito Puente - Tinguaro
Доп. информация:
 
EAC
Exact Audio Copy V0.99 prebeta 5 from 4. May 2009
EAC extraction logfile from 2. July 2009, 14:43
Various / Music That Inspired Buena Vista Social Club - Disc 1
Used drive : LITE-ON DVDRW SHW-160P6S Adapter: 3 ID: 0
Read mode : Secure
Utilize accurate stream : Yes
Defeat audio cache : Yes
Make use of C2 pointers : No
Read offset correction : 6
Overread into Lead-In and Lead-Out : No
Fill up missing offset samples with silence : Yes
Delete leading and trailing silent blocks : No
Null samples used in CRC calculations : Yes
Used interface : Native Win32 interface for Win NT & 2000
Gap handling : Appended to previous track
Used output format : User Defined Encoder
Selected bitrate : 768 kBit/s
Quality : High
Add ID3 tag : No
Command line compressor : C:\Program Files\Exact Audio Copy\FLAC\FLAC.EXE
Additional command line options : -8 -V -T "ARTIST=%a" -T "TITLE=%t" -T "ALBUM=%g" -T "DATE=%y" -T "TRACKNUMBER=%n" -T "GENRE=%m" -T "COMMENT=EAC FLAC -8" %s
TOC of the extracted CD
Track | Start | Length | Start sector | End sector
---------------------------------------------------------
1 | 0:00.00 | 2:43.65 | 0 | 12289
2 | 2:43.65 | 3:35.61 | 12290 | 28475
3 | 6:19.51 | 3:00.63 | 28476 | 42038
4 | 9:20.39 | 2:19.31 | 42039 | 52494
5 | 11:39.70 | 2:54.30 | 52495 | 65574
6 | 14:34.25 | 2:52.00 | 65575 | 78474
7 | 17:26.25 | 3:11.00 | 78475 | 92799
8 | 20:37.25 | 2:40.71 | 92800 | 104870
9 | 23:18.21 | 3:09.58 | 104871 | 119103
10 | 26:28.04 | 3:00.00 | 119104 | 132603
11 | 29:28.04 | 2:53.25 | 132604 | 145603
12 | 32:21.29 | 3:03.18 | 145604 | 159346
13 | 35:24.47 | 2:48.33 | 159347 | 171979
14 | 38:13.05 | 3:10.49 | 171980 | 186278
15 | 41:23.54 | 2:53.62 | 186279 | 199315
16 | 44:17.41 | 3:06.62 | 199316 | 213327
17 | 47:24.28 | 3:02.10 | 213328 | 226987
18 | 50:26.38 | 3:02.46 | 226988 | 240683
19 | 53:29.09 | 3:08.19 | 240684 | 254802
20 | 56:37.28 | 2:52.38 | 254803 | 267740
21 | 59:29.66 | 2:52.47 | 267741 | 280687
22 | 62:22.38 | 2:47.66 | 280688 | 293278
23 | 65:10.29 | 2:41.20 | 293279 | 305373
24 | 67:51.49 | 3:00.30 | 305374 | 318903
25 | 70:52.04 | 2:32.53 | 318904 | 330356
Track 1
Filename C:\Program Files\Mozilla Firefox\components\plugins\Exact Audio Copy\Disc 1\01 - Ruben Gonzalez - El Yayabo.wav
Pre-gap length 0:00:02.00
Peak level 98.6 %
Track quality 100.0 %
Test CRC 5C82FA31
Copy CRC 5C82FA31
Accurately ripped (confidence 2) [8B946E14]
Copy OK
Track 2
Filename C:\Program Files\Mozilla Firefox\components\plugins\Exact Audio Copy\Disc 1\02 - Compay Segundo - Me Diras Que.wav
Pre-gap length 0:00:01.77
Peak level 98.6 %
Track quality 100.0 %
Test CRC 83C78454
Copy CRC 83C78454
Accurately ripped (confidence 2) [0718904C]
Copy OK
Track 3
Filename C:\Program Files\Mozilla Firefox\components\plugins\Exact Audio Copy\Disc 1\03 - Ibrahim Ferrer - El Platanal de Bartolo.wav
Pre-gap length 0:00:01.77
Peak level 98.6 %
Track quality 100.0 %
Test CRC 19CA7D18
Copy CRC 19CA7D18
Accurately ripped (confidence 2) [36241C3C]
Copy OK
Track 4
Filename C:\Program Files\Mozilla Firefox\components\plugins\Exact Audio Copy\Disc 1\04 - Omara Portuondo (feat. Cuarteto d'Aida) - Oye Mi Ritmo.wav
Pre-gap length 0:00:01.77
Peak level 98.8 %
Track quality 100.0 %
Test CRC CA884A52
Copy CRC CA884A52
Accurately ripped (confidence 2) [32279063]
Copy OK
Track 5
Filename C:\Program Files\Mozilla Firefox\components\plugins\Exact Audio Copy\Disc 1\05 - Abelardo Barroso - En Guantanamo.wav
Pre-gap length 0:00:01.77
Peak level 98.6 %
Track quality 100.0 %
Test CRC 40DE4B47
Copy CRC 40DE4B47
Accurately ripped (confidence 2) [2ED23172]
Copy OK
Track 6
Filename C:\Program Files\Mozilla Firefox\components\plugins\Exact Audio Copy\Disc 1\06 - Ruben Gonzalez - El Amore Es Una Cosa Esplendora.wav
Pre-gap length 0:00:01.77
Peak level 98.8 %
Track quality 99.9 %
Test CRC 8C199F6A
Copy CRC 8C199F6A
Accurately ripped (confidence 2) [8604C24E]
Copy OK
Track 7
Filename C:\Program Files\Mozilla Firefox\components\plugins\Exact Audio Copy\Disc 1\07 - Pio Levya - Comiendo y Cantando.wav
Pre-gap length 0:00:01.77
Peak level 98.5 %
Track quality 100.0 %
Test CRC AD9B24ED
Copy CRC AD9B24ED
Accurately ripped (confidence 2) [7D94202F]
Copy OK
Track 8
Filename C:\Program Files\Mozilla Firefox\components\plugins\Exact Audio Copy\Disc 1\08 - Conjuto Roberto Faz - Suena Tu Bongo.wav
Pre-gap length 0:00:01.77
Peak level 98.6 %
Track quality 100.0 %
Test CRC AADD280C
Copy CRC AADD280C
Accurately ripped (confidence 2) [6B2AE1DC]
Copy OK
Track 9
Filename C:\Program Files\Mozilla Firefox\components\plugins\Exact Audio Copy\Disc 1\09 - Ibrahim Ferrer - Bodas de Oro.wav
Pre-gap length 0:00:01.77
Peak level 98.7 %
Track quality 100.0 %
Test CRC 0A499F5E
Copy CRC 0A499F5E
Accurately ripped (confidence 2) [C292D7FC]
Copy OK
Track 10
Filename C:\Program Files\Mozilla Firefox\components\plugins\Exact Audio Copy\Disc 1\10 - Ruben Gonzalez - Nuestras Vidas - Mi Corazon Es Para Ti.wav
Pre-gap length 0:00:01.77
Peak level 98.6 %
Track quality 99.9 %
Test CRC D83399DB
Copy CRC D83399DB
Accurately ripped (confidence 2) [6E8460D7]
Copy OK
Track 11
Filename C:\Program Files\Mozilla Firefox\components\plugins\Exact Audio Copy\Disc 1\11 - La Sonora Matancera - Eso Se Hincha.wav
Pre-gap length 0:00:01.77
Peak level 98.7 %
Track quality 99.9 %
Test CRC B6F90421
Copy CRC B6F90421
Accurately ripped (confidence 2) [2FC0C830]
Copy OK
Track 12
Filename C:\Program Files\Mozilla Firefox\components\plugins\Exact Audio Copy\Disc 1\12 - Pio Levya - Macorina.wav
Pre-gap length 0:00:01.77
Peak level 98.6 %
Track quality 100.0 %
Test CRC 393AA606
Copy CRC 393AA606
Accurately ripped (confidence 2) [3436A9E5]
Copy OK
Track 13
Filename C:\Program Files\Mozilla Firefox\components\plugins\Exact Audio Copy\Disc 1\13 - Celio Gonzalez - Don Pantaleon.wav
Pre-gap length 0:00:01.77
Peak level 98.7 %
Track quality 100.0 %
Test CRC 55833C73
Copy CRC 55833C73
Accurately ripped (confidence 2) [D308C4A4]
Copy OK
Track 14
Filename C:\Program Files\Mozilla Firefox\components\plugins\Exact Audio Copy\Disc 1\14 - Ruben Gonzalez - Nosotros.wav
Pre-gap length 0:00:01.77
Peak level 98.7 %
Track quality 100.0 %
Test CRC C66A5921
Copy CRC C66A5921
Accurately ripped (confidence 2) [E82A2DAB]
Copy OK
Track 15
Filename C:\Program Files\Mozilla Firefox\components\plugins\Exact Audio Copy\Disc 1\15 - El Negro Peregrino - El Jarabe Loco.wav
Pre-gap length 0:00:01.77
Peak level 98.6 %
Track quality 100.0 %
Test CRC 80C871DF
Copy CRC 80C871DF
Accurately ripped (confidence 2) [48D31FBA]
Copy OK
Track 16
Filename C:\Program Files\Mozilla Firefox\components\plugins\Exact Audio Copy\Disc 1\16 - Celia Cruz - Goza Negra.wav
Pre-gap length 0:00:01.77
Peak level 98.8 %
Track quality 100.0 %
Test CRC 41769A8A
Copy CRC 41769A8A
Accurately ripped (confidence 2) [C82D56B1]
Copy OK
Track 17
Filename C:\Program Files\Mozilla Firefox\components\plugins\Exact Audio Copy\Disc 1\17 - Alfredito Valdez and Trio caney - La Campina Cubana.wav
Pre-gap length 0:00:01.77
Peak level 98.6 %
Track quality 100.0 %
Test CRC F8D6030C
Copy CRC F8D6030C
Accurately ripped (confidence 2) [040ADCB9]
Copy OK
Track 18
Filename C:\Program Files\Mozilla Firefox\components\plugins\Exact Audio Copy\Disc 1\18 - Chapotin and his Estrellas - Ya Tu Lo Ves Campeon.wav
Pre-gap length 0:00:01.77
Peak level 98.6 %
Track quality 99.9 %
Test CRC 5206524E
Copy CRC 5206524E
Accurately ripped (confidence 2) [0904FC3D]
Copy OK
Track 19
Filename C:\Program Files\Mozilla Firefox\components\plugins\Exact Audio Copy\Disc 1\19 - Pio Leyva - Recuerdo de Varadero.wav
Pre-gap length 0:00:01.77
Peak level 98.6 %
Track quality 100.0 %
Test CRC 88785106
Copy CRC 88785106
Accurately ripped (confidence 2) [01F05622]
Copy OK
Track 20
Filename C:\Program Files\Mozilla Firefox\components\plugins\Exact Audio Copy\Disc 1\20 - Orlando Contreras - Tabelen.wav
Pre-gap length 0:00:01.77
Peak level 98.6 %
Track quality 100.0 %
Test CRC 26C58A38
Copy CRC 26C58A38
Accurately ripped (confidence 2) [582A7341]
Copy OK
Track 21
Filename C:\Program Files\Mozilla Firefox\components\plugins\Exact Audio Copy\Disc 1\21 - Celia Cruz - Ven Bernabe.wav
Pre-gap length 0:00:01.77
Peak level 98.6 %
Track quality 100.0 %
Test CRC 8317F9B0
Copy CRC 8317F9B0
Accurately ripped (confidence 2) [368C32CC]
Copy OK
Track 22
Filename C:\Program Files\Mozilla Firefox\components\plugins\Exact Audio Copy\Disc 1\22 - Beny More - Soy del Mote.wav
Pre-gap length 0:00:01.77
Peak level 98.7 %
Track quality 100.0 %
Test CRC A2C276A6
Copy CRC A2C276A6
Accurately ripped (confidence 2) [8B818BA6]
Copy OK
Track 23
Filename C:\Program Files\Mozilla Firefox\components\plugins\Exact Audio Copy\Disc 1\23 - Raul Diaz - Como le Decia.wav
Pre-gap length 0:00:01.77
Peak level 98.6 %
Track quality 100.0 %
Test CRC D409BFFF
Copy CRC D409BFFF
Accurately ripped (confidence 2) [1390CFB6]
Copy OK
Track 24
Filename C:\Program Files\Mozilla Firefox\components\plugins\Exact Audio Copy\Disc 1\24 - Ruben Gonzalez - Los Tres Violins.wav
Pre-gap length 0:00:01.77
Peak level 98.8 %
Track quality 100.0 %
Test CRC 4AB6BD30
Copy CRC 4AB6BD30
Accurately ripped (confidence 2) [C879480F]
Copy OK
Track 25
Filename C:\Program Files\Mozilla Firefox\components\plugins\Exact Audio Copy\Disc 1\25 - Tito Puente - Candido.wav
Pre-gap length 0:00:01.77
Peak level 98.6 %
Track quality 100.0 %
Test CRC 94A7F78E
Copy CRC 94A7F78E
Accurately ripped (confidence 2) [6639EE62]
Copy OK
All tracks accurately ripped
No errors occurred
End of status report
Exact Audio Copy V0.99 prebeta 5 from 4. May 2009
EAC extraction logfile from 1. July 2009, 2:28
Various Artists / Music that inspired Buena Vista Social Club - Disc 2
Used drive : TSSTcorpCDDVDW SH-S222A Adapter: 2 ID: 0
Read mode : Secure
Utilize accurate stream : Yes
Defeat audio cache : Yes
Make use of C2 pointers : No
Read offset correction : 6
Overread into Lead-In and Lead-Out : No
Fill up missing offset samples with silence : Yes
Delete leading and trailing silent blocks : No
Null samples used in CRC calculations : Yes
Used interface : Native Win32 interface for Win NT & 2000
Gap handling : Appended to previous track
Used output format : User Defined Encoder
Selected bitrate : 128 kBit/s
Quality : High
Add ID3 tag : No
Command line compressor : C:\Program Files\FLAC\flac.exe
Additional command line options : -8 -V -T "ARTIST=%a" -T "TITLE=%t" -T "ALBUM=%g" -T "DATE=%y" -T "TRACKNUMBER=%n" -T "GENRE=%m" -T "COMMENT=EAC FLAC -8" %s
TOC of the extracted CD
Track | Start | Length | Start sector | End sector
---------------------------------------------------------
1 | 0:00.00 | 2:43.30 | 0 | 12254
2 | 2:43.30 | 3:08.74 | 12255 | 26428
3 | 5:52.29 | 2:23.24 | 26429 | 37177
4 | 8:15.53 | 2:36.51 | 37178 | 48928
5 | 10:52.29 | 2:30.68 | 48929 | 60246
6 | 13:23.22 | 2:49.33 | 60247 | 72954
7 | 16:12.55 | 2:57.42 | 72955 | 86271
8 | 19:10.22 | 3:35.07 | 86272 | 102403
9 | 22:45.29 | 2:51.64 | 102404 | 115292
10 | 25:37.18 | 3:00.15 | 115293 | 128807
11 | 28:37.33 | 2:19.57 | 128808 | 139289
12 | 30:57.15 | 2:56.70 | 139290 | 152559
13 | 33:54.10 | 2:47.69 | 152560 | 165153
14 | 36:42.04 | 2:56.46 | 165154 | 178399
15 | 39:38.50 | 3:06.47 | 178400 | 192396
16 | 42:45.22 | 3:06.65 | 192397 | 206411
17 | 45:52.12 | 3:03.54 | 206412 | 220190
18 | 48:55.66 | 2:58.34 | 220191 | 233574
19 | 51:54.25 | 3:12.30 | 233575 | 248004
20 | 55:06.55 | 3:03.42 | 248005 | 261771
21 | 58:10.22 | 2:40.39 | 261772 | 273810
22 | 60:50.61 | 3:00.54 | 273811 | 287364
23 | 63:51.40 | 2:48.46 | 287365 | 300010
24 | 66:40.11 | 3:11.17 | 300011 | 314352
25 | 69:51.28 | 3:12.57 | 314353 | 328809
Track 1
Filename C:\VA - Music That Inspired Buena Vista Social Club (2009) [FLAC]\Disc 2\01 - Celia Cruz - Juancito trucupey.wav
Pre-gap length 0:00:02.00
Peak level 98.8 %
Track quality 100.0 %
Test CRC 12E9A0EC
Copy CRC 12E9A0EC
Accurately ripped (confidence 2) [577AC1A6]
Copy OK
Track 2
Filename C:\VA - Music That Inspired Buena Vista Social Club (2009) [FLAC]\Disc 2\02 - Machito - Zambia.wav
Pre-gap length 0:00:01.77
Peak level 98.7 %
Track quality 100.0 %
Test CRC B41DAC4C
Copy CRC B41DAC4C
Accurately ripped (confidence 2) [D2E45E61]
Copy OK
Track 3
Filename C:\VA - Music That Inspired Buena Vista Social Club (2009) [FLAC]\Disc 2\03 - Beny More - Francisco Guayabal.wav
Pre-gap length 0:00:01.77
Peak level 98.6 %
Track quality 100.0 %
Test CRC 38015336
Copy CRC 38015336
Accurately ripped (confidence 2) [6A2AF7E7]
Copy OK
Track 4
Filename C:\VA - Music That Inspired Buena Vista Social Club (2009) [FLAC]\Disc 2\04 - Aldemaro Romero - Mango mangue.wav
Pre-gap length 0:00:01.77
Peak level 98.6 %
Track quality 100.0 %
Test CRC 9DC2B71A
Copy CRC 9DC2B71A
Accurately ripped (confidence 2) [A2D09461]
Copy OK
Track 5
Filename C:\VA - Music That Inspired Buena Vista Social Club (2009) [FLAC]\Disc 2\05 - Tito Puente - Tu no eres nadie.wav
Pre-gap length 0:00:01.77
Peak level 98.5 %
Track quality 100.0 %
Test CRC AF837AEE
Copy CRC AF837AEE
Accurately ripped (confidence 2) [DB05F75E]
Copy OK
Track 6
Filename C:\VA - Music That Inspired Buena Vista Social Club (2009) [FLAC]\Disc 2\06 - Chano Pozo y James Moody - Tin tin deo.wav
Pre-gap length 0:00:01.77
Peak level 98.8 %
Track quality 100.0 %
Test CRC 4613A27D
Copy CRC 4613A27D
Accurately ripped (confidence 2) [727CCC06]
Copy OK
Track 7
Filename C:\VA - Music That Inspired Buena Vista Social Club (2009) [FLAC]\Disc 2\07 - Lecuona Cuban Boys - Rumbas Cubanas.wav
Pre-gap length 0:00:01.77
Peak level 98.5 %
Track quality 99.9 %
Test CRC 8901C693
Copy CRC 8901C693
Accurately ripped (confidence 2) [3C01196E]
Copy OK
Track 8
Filename C:\VA - Music That Inspired Buena Vista Social Club (2009) [FLAC]\Disc 2\08 - Desi Arnaz - Babalu.wav
Pre-gap length 0:00:01.77
Peak level 98.6 %
Track quality 100.0 %
Test CRC AE11852B
Copy CRC AE11852B
Accurately ripped (confidence 2) [75CBF27C]
Copy OK
Track 9
Filename C:\VA - Music That Inspired Buena Vista Social Club (2009) [FLAC]\Disc 2\09 - Bebo Valdes y Sabor de Cuba - Tirando tiro.wav
Pre-gap length 0:00:01.77
Peak level 98.8 %
Track quality 100.0 %
Test CRC F612224F
Copy CRC F612224F
Accurately ripped (confidence 2) [698F554B]
Copy OK
Track 10
Filename C:\VA - Music That Inspired Buena Vista Social Club (2009) [FLAC]\Disc 2\10 - Vincentino Valdes - Cao cao mani picao.wav
Pre-gap length 0:00:01.77
Peak level 98.6 %
Track quality 99.9 %
Test CRC 4BBEF681
Copy CRC 4BBEF681
Accurately ripped (confidence 2) [2B79E3B4]
Copy OK
Track 11
Filename C:\VA - Music That Inspired Buena Vista Social Club (2009) [FLAC]\Disc 2\11 - Perez Prado - Patricia.wav
Pre-gap length 0:00:01.77
Peak level 98.8 %
Track quality 100.0 %
Test CRC 393FA5C7
Copy CRC 393FA5C7
Accurately ripped (confidence 2) [F855F7AA]
Copy OK
Track 12
Filename C:\VA - Music That Inspired Buena Vista Social Club (2009) [FLAC]\Disc 2\12 - Mario Bauza y Machito - Cancion.wav
Pre-gap length 0:00:01.77
Peak level 98.6 %
Track quality 100.0 %
Test CRC 9705134B
Copy CRC 9705134B
Accurately ripped (confidence 2) [6FBE010B]
Copy OK
Track 13
Filename C:\VA - Music That Inspired Buena Vista Social Club (2009) [FLAC]\Disc 2\13 - Chano Pozo y Machito - Porque eu surfes.wav
Pre-gap length 0:00:01.77
Peak level 98.5 %
Track quality 100.0 %
Test CRC DC48491D
Copy CRC DC48491D
Accurately ripped (confidence 2) [84A01780]
Copy OK
Track 14
Filename C:\VA - Music That Inspired Buena Vista Social Club (2009) [FLAC]\Disc 2\14 - Celia Cruz - Oyela, Gozala.wav
Pre-gap length 0:00:01.77
Peak level 98.8 %
Track quality 100.0 %
Test CRC CC19A9A6
Copy CRC CC19A9A6
Accurately ripped (confidence 2) [509C0F04]
Copy OK
Track 15
Filename C:\VA - Music That Inspired Buena Vista Social Club (2009) [FLAC]\Disc 2\15 - Beny More - Maracaibo Oriental.wav
Pre-gap length 0:00:01.77
Peak level 98.6 %
Track quality 99.9 %
Test CRC E2856F1E
Copy CRC E2856F1E
Accurately ripped (confidence 2) [2096B439]
Copy OK
Track 16
Filename C:\VA - Music That Inspired Buena Vista Social Club (2009) [FLAC]\Disc 2\16 - Lecuona Cuban Boys - Mosaico.wav
Pre-gap length 0:00:01.77
Peak level 98.6 %
Track quality 100.0 %
Test CRC 7D3B31F3
Copy CRC 7D3B31F3
Accurately ripped (confidence 2) [CE277D89]
Copy OK
Track 17
Filename C:\VA - Music That Inspired Buena Vista Social Club (2009) [FLAC]\Disc 2\17 - Vicentino Valdes y Tito Puente - No lo hago mas.wav
Pre-gap length 0:00:01.77
Peak level 98.7 %
Track quality 100.0 %
Test CRC 9AD03FD9
Copy CRC 9AD03FD9
Accurately ripped (confidence 2) [AE73ADDB]
Copy OK
Track 18
Filename C:\VA - Music That Inspired Buena Vista Social Club (2009) [FLAC]\Disc 2\18 - Angel Rolando - Toque oyo.wav
Pre-gap length 0:00:01.77
Peak level 98.6 %
Track quality 100.0 %
Test CRC 5264B8AA
Copy CRC 5264B8AA
Accurately ripped (confidence 2) [2919E72E]
Copy OK
Track 19
Filename C:\VA - Music That Inspired Buena Vista Social Club (2009) [FLAC]\Disc 2\19 - Mario Bauza y Machito - Asia Minor.wav
Pre-gap length 0:00:01.77
Peak level 98.6 %
Track quality 100.0 %
Test CRC 3035517C
Copy CRC 3035517C
Accurately ripped (confidence 2) [2AC7C9F1]
Copy OK
Track 20
Filename C:\VA - Music That Inspired Buena Vista Social Club (2009) [FLAC]\Disc 2\20 - Desi Arnaz - Tico Tico.wav
Pre-gap length 0:00:01.77
Peak level 98.6 %
Track quality 100.0 %
Test CRC 256DDE9E
Copy CRC 256DDE9E
Accurately ripped (confidence 2) [437318F9]
Copy OK
Track 21
Filename C:\VA - Music That Inspired Buena Vista Social Club (2009) [FLAC]\Disc 2\21 - Calia Cruz - Burundanga.wav
Pre-gap length 0:00:01.77
Peak level 98.5 %
Track quality 100.0 %
Test CRC 381BF59E
Copy CRC 381BF59E
Accurately ripped (confidence 2) [78A2DF86]
Copy OK
Track 22
Filename C:\VA - Music That Inspired Buena Vista Social Club (2009) [FLAC]\Disc 2\22 - Bebo Valdes - Merengues, No.wav
Pre-gap length 0:00:01.77
Peak level 98.5 %
Track quality 100.0 %
Test CRC 5A49B7C2
Copy CRC 5A49B7C2
Accurately ripped (confidence 2) [A0BF2171]
Copy OK
Track 23
Filename C:\VA - Music That Inspired Buena Vista Social Club (2009) [FLAC]\Disc 2\23 - Perez Prado - Mambo No.5.wav
Pre-gap length 0:00:01.77
Peak level 98.7 %
Track quality 100.0 %
Test CRC 144AAD6A
Copy CRC 144AAD6A
Accurately ripped (confidence 2) [CBC23B81]
Copy OK
Track 24
Filename C:\VA - Music That Inspired Buena Vista Social Club (2009) [FLAC]\Disc 2\24 - Beny More y su All Star Cuban Orchestra - Que bueno baila usted.wav
Pre-gap length 0:00:01.77
Peak level 98.7 %
Track quality 100.0 %
Test CRC 917EED64
Copy CRC 917EED64
Accurately ripped (confidence 2) [F2C44328]
Copy OK
Track 25
Filename C:\VA - Music That Inspired Buena Vista Social Club (2009) [FLAC]\Disc 2\25 - Tito Puente - Tinguaro.wav
Pre-gap length 0:00:01.77
Peak level 98.8 %
Track quality 100.0 %
Test CRC 0F0039DD
Copy CRC 0F0039DD
Accurately ripped (confidence 2) [213F52C0]
Copy OK
All tracks accurately ripped
No errors occurred
End of status report
 
CUE
Содержимое CUE
 
Disc 1
REM GENRE Other
REM DATE 2009
REM DISCID 69113419
REM COMMENT "ExactAudioCopy v0.99pb5"
PERFORMER "Various"
TITLE "Music That Inspired Buena Vista Social Club - Disc 1"
FILE "01 - Ruben Gonzalez - El Yayabo.wav" WAVE
TRACK 01 AUDIO
TITLE "El Yayabo"
PERFORMER "Ruben Gonzalez"
INDEX 01 00:00:00
TRACK 02 AUDIO
TITLE "Me Diras Que"
PERFORMER "Compay Segundo"
INDEX 00 02:42:07
FILE "02 - Compay Segundo - Me Diras Que.wav" WAVE
INDEX 01 00:00:00
TRACK 03 AUDIO
TITLE "El Platanal de Bartolo"
PERFORMER "Ibrahim Ferrer"
INDEX 00 03:34:03
FILE "03 - Ibrahim Ferrer - El Platanal de Bartolo.wav" WAVE
INDEX 01 00:00:00
TRACK 04 AUDIO
TITLE "Oye Mi Ritmo"
PERFORMER "Omara Portuondo (feat. Cuarteto d'Aida)"
INDEX 00 02:59:05
FILE "04 - Omara Portuondo (feat. Cuarteto d'Aida) - Oye Mi Ritmo.wav" WAVE
INDEX 01 00:00:00
TRACK 05 AUDIO
TITLE "En Guantanamo"
PERFORMER "Abelardo Barroso"
INDEX 00 02:17:48
FILE "05 - Abelardo Barroso - En Guantanamo.wav" WAVE
INDEX 01 00:00:00
TRACK 06 AUDIO
TITLE "El Amore Es Una Cosa Esplendora"
PERFORMER "Ruben Gonzalez"
INDEX 00 02:52:47
FILE "06 - Ruben Gonzalez - El Amore Es Una Cosa Esplendora.wav" WAVE
INDEX 01 00:00:00
TRACK 07 AUDIO
TITLE "Comiendo y Cantando"
PERFORMER "Pio Levya"
INDEX 00 02:50:17
FILE "07 - Pio Levya - Comiendo y Cantando.wav" WAVE
INDEX 01 00:00:00
TRACK 08 AUDIO
TITLE "Suena Tu Bongo"
PERFORMER "Conjuto Roberto Faz"
INDEX 00 03:09:17
FILE "08 - Conjuto Roberto Faz - Suena Tu Bongo.wav" WAVE
INDEX 01 00:00:00
TRACK 09 AUDIO
TITLE "Bodas de Oro"
PERFORMER "Ibrahim Ferrer"
INDEX 00 02:39:13
FILE "09 - Ibrahim Ferrer - Bodas de Oro.wav" WAVE
INDEX 01 00:00:00
TRACK 10 AUDIO
TITLE "Nuestras Vidas - Mi Corazon Es Para Ti"
PERFORMER "Ruben Gonzalez"
INDEX 00 03:08:00
FILE "10 - Ruben Gonzalez - Nuestras Vidas - Mi Corazon Es Para Ti.wav" WAVE
INDEX 01 00:00:00
TRACK 11 AUDIO
TITLE "Eso Se Hincha"
PERFORMER "La Sonora Matancera"
INDEX 00 02:58:17
FILE "11 - La Sonora Matancera - Eso Se Hincha.wav" WAVE
INDEX 01 00:00:00
TRACK 12 AUDIO
TITLE "Macorina"
PERFORMER "Pio Levya"
INDEX 00 02:51:42
FILE "12 - Pio Levya - Macorina.wav" WAVE
INDEX 01 00:00:00
TRACK 13 AUDIO
TITLE "Don Pantaleon"
PERFORMER "Celio Gonzalez"
INDEX 00 03:01:35
FILE "13 - Celio Gonzalez - Don Pantaleon.wav" WAVE
INDEX 01 00:00:00
TRACK 14 AUDIO
TITLE "Nosotros"
PERFORMER "Ruben Gonzalez"
INDEX 00 02:46:50
FILE "14 - Ruben Gonzalez - Nosotros.wav" WAVE
INDEX 01 00:00:00
TRACK 15 AUDIO
TITLE "El Jarabe Loco"
PERFORMER "El Negro Peregrino"
INDEX 00 03:08:66
FILE "15 - El Negro Peregrino - El Jarabe Loco.wav" WAVE
INDEX 01 00:00:00
TRACK 16 AUDIO
TITLE "Goza Negra"
PERFORMER "Celia Cruz"
INDEX 00 02:52:04
FILE "16 - Celia Cruz - Goza Negra.wav" WAVE
INDEX 01 00:00:00
TRACK 17 AUDIO
TITLE "La Campina Cubana"
PERFORMER "Alfredito Valdez and Trio caney"
INDEX 00 03:05:04
FILE "17 - Alfredito Valdez and Trio caney - La Campina Cubana.wav" WAVE
INDEX 01 00:00:00
TRACK 18 AUDIO
TITLE "Ya Tu Lo Ves Campeon"
PERFORMER "Chapotin and his Estrellas"
INDEX 00 03:00:27
FILE "18 - Chapotin and his Estrellas - Ya Tu Lo Ves Campeon.wav" WAVE
INDEX 01 00:00:00
TRACK 19 AUDIO
TITLE "Recuerdo de Varadero"
PERFORMER "Pio Leyva"
INDEX 00 03:00:63
FILE "19 - Pio Leyva - Recuerdo de Varadero.wav" WAVE
INDEX 01 00:00:00
TRACK 20 AUDIO
TITLE "Tabelen"
PERFORMER "Orlando Contreras"
INDEX 00 03:06:36
FILE "20 - Orlando Contreras - Tabelen.wav" WAVE
INDEX 01 00:00:00
TRACK 21 AUDIO
TITLE "Ven Bernabe"
PERFORMER "Celia Cruz"
INDEX 00 02:50:55
FILE "21 - Celia Cruz - Ven Bernabe.wav" WAVE
INDEX 01 00:00:00
TRACK 22 AUDIO
TITLE "Soy del Mote"
PERFORMER "Beny More"
INDEX 00 02:50:64
FILE "22 - Beny More - Soy del Mote.wav" WAVE
INDEX 01 00:00:00
TRACK 23 AUDIO
TITLE "Como le Decia"
PERFORMER "Raul Diaz"
INDEX 00 02:46:08
FILE "23 - Raul Diaz - Como le Decia.wav" WAVE
INDEX 01 00:00:00
TRACK 24 AUDIO
TITLE "Los Tres Violins"
PERFORMER "Ruben Gonzalez"
INDEX 00 02:39:37
FILE "24 - Ruben Gonzalez - Los Tres Violins.wav" WAVE
INDEX 01 00:00:00
TRACK 25 AUDIO
TITLE "Candido"
PERFORMER "Tito Puente"
INDEX 00 02:58:47
FILE "25 - Tito Puente - Candido.wav" WAVE
INDEX 01 00:00:00
 
Disc 2
REM GENRE Latin
REM DATE 2009
REM DISCID 72112019
REM COMMENT "ExactAudioCopy v0.99pb5"
PERFORMER "Various Artists"
TITLE "Music that inspired Buena Vista Social Club - Disc 2"
FILE "01 - Celia Cruz - Juancito trucupey.wav" WAVE
TRACK 01 AUDIO
TITLE "Juancito trucupey"
PERFORMER "Celia Cruz"
INDEX 01 00:00:00
TRACK 02 AUDIO
TITLE "Zambia"
PERFORMER "Machito"
INDEX 00 02:41:47
FILE "02 - Machito - Zambia.wav" WAVE
INDEX 01 00:00:00
TRACK 03 AUDIO
TITLE "Francisco Guayabal"
PERFORMER "Beny More"
INDEX 00 03:07:16
FILE "03 - Beny More - Francisco Guayabal.wav" WAVE
INDEX 01 00:00:00
TRACK 04 AUDIO
TITLE "Mango mangue"
PERFORMER "Aldemaro Romero"
INDEX 00 02:21:41
FILE "04 - Aldemaro Romero - Mango mangue.wav" WAVE
INDEX 01 00:00:00
TRACK 05 AUDIO
TITLE "Tu no eres nadie"
PERFORMER "Tito Puente"
INDEX 00 02:34:68
FILE "05 - Tito Puente - Tu no eres nadie.wav" WAVE
INDEX 01 00:00:00
TRACK 06 AUDIO
TITLE "Tin tin deo"
PERFORMER "Chano Pozo y James Moody"
INDEX 00 02:29:10
FILE "06 - Chano Pozo y James Moody - Tin tin deo.wav" WAVE
INDEX 01 00:00:00
TRACK 07 AUDIO
TITLE "Rumbas Cubanas"
PERFORMER "Lecuona Cuban Boys"
INDEX 00 02:47:50
FILE "07 - Lecuona Cuban Boys - Rumbas Cubanas.wav" WAVE
INDEX 01 00:00:00
TRACK 08 AUDIO
TITLE "Babalu"
PERFORMER "Desi Arnaz"
INDEX 00 02:55:59
FILE "08 - Desi Arnaz - Babalu.wav" WAVE
INDEX 01 00:00:00
TRACK 09 AUDIO
TITLE "Tirando tiro"
PERFORMER "Bebo Valdes y Sabor de Cuba"
INDEX 00 03:33:24
FILE "09 - Bebo Valdes y Sabor de Cuba - Tirando tiro.wav" WAVE
INDEX 01 00:00:00
TRACK 10 AUDIO
TITLE "Cao cao mani picao"
PERFORMER "Vincentino Valdes"
INDEX 00 02:50:06
FILE "10 - Vincentino Valdes - Cao cao mani picao.wav" WAVE
INDEX 01 00:00:00
TRACK 11 AUDIO
TITLE "Patricia"
PERFORMER "Perez Prado"
INDEX 00 02:58:32
FILE "11 - Perez Prado - Patricia.wav" WAVE
INDEX 01 00:00:00
TRACK 12 AUDIO
TITLE "Cancion"
PERFORMER "Mario Bauza y Machito"
INDEX 00 02:17:74
FILE "12 - Mario Bauza y Machito - Cancion.wav" WAVE
INDEX 01 00:00:00
TRACK 13 AUDIO
TITLE "Porque eu surfes"
PERFORMER "Chano Pozo y Machito"
INDEX 00 02:55:12
FILE "13 - Chano Pozo y Machito - Porque eu surfes.wav" WAVE
INDEX 01 00:00:00
TRACK 14 AUDIO
TITLE "Oyela, Gozala"
PERFORMER "Celia Cruz"
INDEX 00 02:46:11
FILE "14 - Celia Cruz - Oyela, Gozala.wav" WAVE
INDEX 01 00:00:00
TRACK 15 AUDIO
TITLE "Maracaibo Oriental"
PERFORMER "Beny More"
INDEX 00 02:54:63
FILE "15 - Beny More - Maracaibo Oriental.wav" WAVE
INDEX 01 00:00:00
TRACK 16 AUDIO
TITLE "Mosaico"
PERFORMER "Lecuona Cuban Boys"
INDEX 00 03:04:64
FILE "16 - Lecuona Cuban Boys - Mosaico.wav" WAVE
INDEX 01 00:00:00
TRACK 17 AUDIO
TITLE "No lo hago mas"
PERFORMER "Vicentino Valdes y Tito Puente"
INDEX 00 03:05:07
FILE "17 - Vicentino Valdes y Tito Puente - No lo hago mas.wav" WAVE
INDEX 01 00:00:00
TRACK 18 AUDIO
TITLE "Toque oyo"
PERFORMER "Angel Rolando"
INDEX 00 03:01:71
FILE "18 - Angel Rolando - Toque oyo.wav" WAVE
INDEX 01 00:00:00
TRACK 19 AUDIO
TITLE "Asia Minor"
PERFORMER "Mario Bauza y Machito"
INDEX 00 02:56:51
FILE "19 - Mario Bauza y Machito - Asia Minor.wav" WAVE
INDEX 01 00:00:00
TRACK 20 AUDIO
TITLE "Tico Tico"
PERFORMER "Desi Arnaz"
INDEX 00 03:10:47
FILE "20 - Desi Arnaz - Tico Tico.wav" WAVE
INDEX 01 00:00:00
TRACK 21 AUDIO
TITLE "Burundanga"
PERFORMER "Calia Cruz"
INDEX 00 03:01:59
FILE "21 - Calia Cruz - Burundanga.wav" WAVE
INDEX 01 00:00:00
TRACK 22 AUDIO
TITLE "Merengues, No"
PERFORMER "Bebo Valdes"
INDEX 00 02:38:56
FILE "22 - Bebo Valdes - Merengues, No.wav" WAVE
INDEX 01 00:00:00
TRACK 23 AUDIO
TITLE "Mambo No.5"
PERFORMER "Perez Prado"
INDEX 00 02:58:71
FILE "23 - Perez Prado - Mambo No.5.wav" WAVE
INDEX 01 00:00:00
TRACK 24 AUDIO
TITLE "Que bueno baila usted"
PERFORMER "Beny More y su All Star Cuban Orchestra"
INDEX 00 02:46:63
FILE "24 - Beny More y su All Star Cuban Orchestra - Que bueno baila usted.wav" WAVE
INDEX 01 00:00:00
TRACK 25 AUDIO
TITLE "Tinguaro"
PERFORMER "Tito Puente"
INDEX 00 03:09:34
FILE "25 - Tito Puente - Tinguaro.wav" WAVE
INDEX 01 00:00:00
По всем вопросам пишите личное сообщение пользователю M0p94ok.
11:26
246
Нет комментариев. Ваш будет первым!