Вы используете незарегистрированную версию компонента "Вкладки"!

Поиск

(Brazilian Jazz/World Fusion) Laurindo Almeida - Dance The Bossa Nova - 1994, APE (image+.cue), lossless

(Brazilian Jazz/World Fusion) Laurindo Almeida - Dance The Bossa Nova - 1994, APE (image+.cue), lossless
Треклист:
Laurindo Almeida - Dance The Bossa Nova
Жанр: Brazilian Jazz/World Fusion
Год выпуска диска: 1994
Производитель диска: Италия
Аудио кодек: APE
Тип рипа: image+.cue
Битрейт аудио: lossless
Продолжительность: 44:29
Источник: Нонейм, автор barin99
Трэклист:
1. Lisbon Antigua (In Old Lisbon) 2:16
2. Meditation (Meditacáo) 2:33
3. O Barquinho (Little Boat) 2:17
4. More 2:26
5. Danke Schoen 2:28
6. I Left My Heart in San Francisco 2:28
7. Satin Doll 2:17
8. Heart Aches 2:29
9. I Will Follow Him (Chariot) 2:57
10. Recado Bossa Nova 2:56
11. Hava Nagila 1:58
12. Fly Me to the Moon 2:34
13. Rio Bonita (Beautiful Rio) 2:47
14. Till Then 3:20
15. Sukiyaki 2:13
16. Say Wonderful Things 1:51
17. What Kind of Fool Am I? 2:28
18. The Alley Cat Song 2:05
 
EAC log:
Exact Audio Copy V0.99 prebeta 5 from 4. May 2009
EAC extraction logfile from 19. January 2010, 22:10
Laurindo Almeida / Dance The Bossa Nova
Used drive : TSSTcorpDVD+-RW TS-U633A Adapter: 0 ID: 1
Read mode : Secure
Utilize accurate stream : Yes
Defeat audio cache : Yes
Make use of C2 pointers : No
Read offset correction : 6
Overread into Lead-In and Lead-Out : No
Fill up missing offset samples with silence : Yes
Delete leading and trailing silent blocks : No
Null samples used in CRC calculations : Yes
Used interface : Native Win32 interface for Win NT & 2000
Used output format : Internal WAV Routines
Sample format : 44.100 Hz; 16 Bit; Stereo
TOC of the extracted CD
Track | Start | Length | Start sector | End sector
---------------------------------------------------------
1 | 0:00.00 | 2:16.00 | 0 | 10199
2 | 2:16.00 | 2:33.10 | 10200 | 21684
3 | 4:49.10 | 2:17.70 | 21685 | 32029
4 | 7:07.05 | 2:26.10 | 32030 | 42989
5 | 9:33.15 | 2:28.67 | 42990 | 54156
6 | 12:02.07 | 2:28.43 | 54157 | 65299
7 | 14:30.50 | 2:17.57 | 65300 | 75631
8 | 16:48.32 | 2:29.40 | 75632 | 86846
9 | 19:17.72 | 2:57.60 | 86847 | 100181
10 | 22:15.57 | 2:56.18 | 100182 | 113399
11 | 25:12.00 | 1:58.50 | 113400 | 122299
12 | 27:10.50 | 2:34.00 | 122300 | 133849
13 | 29:44.50 | 2:47.30 | 133850 | 146404
14 | 32:32.05 | 3:20.32 | 146405 | 161436
15 | 35:52.37 | 2:13.45 | 161437 | 171456
16 | 38:06.07 | 1:51.63 | 171457 | 179844
17 | 39:57.70 | 2:28.67 | 179845 | 191011
18 | 42:26.62 | 2:05.50 | 191012 | 200436
Range status and errors
Selected range
Filename C:\_Arc\EAC_Out\Laurindo Almeida - Dance The Bossa Nova\Laurindo Almeida - Dance The Bossa Nova.wav
Peak level 87.7 %
Range quality 100.0 %
Copy CRC 24BBBE71
Copy OK
No errors occurred
AccurateRip summary
Track 1 not present in database
Track 2 not present in database
Track 3 not present in database
Track 4 not present in database
Track 5 not present in database
Track 6 not present in database
Track 7 not present in database
Track 8 not present in database
Track 9 not present in database
Track 10 not present in database
Track 11 not present in database
Track 12 not present in database
Track 13 not present in database
Track 14 not present in database
Track 15 not present in database
Track 16 not present in database
Track 17 not present in database
Track 18 not present in database
None of the tracks are present in the AccurateRip database
End of status report
Any questions - support@pro-jazz.com.
Есть вопросы - support@pro-jazz.com
12:26
211
Нет комментариев. Ваш будет первым!