Поиск

(latin jazz) Compay Segundo - Hey Caramba - 2006, FLAC (tracks+.cue), lossless

(latin jazz) Compay Segundo - Hey Caramba - 2006, FLAC (tracks+.cue), lossless
Треклист:
Compay Segundo - Hey Caramba
Жанр: latin jazz
Год выпуска диска: 2006
Производитель диска: EU
Аудио кодек: FLAC
Тип рипа: tracks+.cue
Битрейт аудио: lossless
Продолжительность: 44:51
Трэклист:
1 Hey Caramba 2:57
2 El Pequinto E Coleto 3:21
3 Mi Son Oriental 3:03
4 La Calabaza 2:56
5 El Gallo E'jando 3:13
6 Jaava Leva 2:56
7 Tu Novia Te Boto 3:03
8 Vicenta 2:56
9 Yo Canta en el Llano 2:57
10 Se Seco el Arroyiyo 2:51
11 Baya y Tapa La Olla 2:47
12 El Parana 3:01
13 Cuembe Tangana 3:02
14 San Luisera 2:45
15 Como el Macao, Candela 3:03
16 Noche Buena 3:00
17 Cuando el Rio Suena 2:53
18 Tente en Pie 2:55
19 Yo Domino 3:15
20 Descripcion de un Sueno 2:54
 
скрытый текст
Exact Audio Copy V0.99 prebeta 4 from 23. January 2008
EAC extraction logfile from 12. March 2009, 13:04
Compay Segundo / Hey Caramba
Used drive : PLEXTOR DVDR PX-760A Adapter: 3 ID: 0
Read mode : Secure
Utilize accurate stream : Yes
Defeat audio cache : Yes
Make use of C2 pointers : No
Read offset correction : 30
Overread into Lead-In and Lead-Out : No
Fill up missing offset samples with silence : Yes
Delete leading and trailing silent blocks : No
Null samples used in CRC calculations : No
Used interface : Installed external ASPI interface
Gap handling : Appended to previous track
Used output format : Internal WAV Routines
Sample format : 44.100 Hz; 16 Bit; Stereo
TOC of the extracted CD
Track | Start | Length | Start sector | End sector
---------------------------------------------------------
1 | 0:00.00 | 2:57.02 | 0 | 13276
2 | 2:57.02 | 3:21.42 | 13277 | 28393
3 | 6:18.44 | 3:03.47 | 28394 | 42165
4 | 9:22.16 | 2:56.09 | 42166 | 55374
5 | 12:18.25 | 3:13.32 | 55375 | 69881
6 | 15:31.57 | 2:56.49 | 69882 | 83130
7 | 18:28.31 | 3:03.26 | 83131 | 96881
8 | 21:31.57 | 2:56.23 | 96882 | 110104
9 | 24:28.05 | 2:57.33 | 110105 | 123412
10 | 27:25.38 | 2:51.41 | 123413 | 136278
11 | 30:17.04 | 2:47.24 | 136279 | 148827
12 | 33:04.28 | 3:01.54 | 148828 | 162456
13 | 36:06.07 | 3:02.70 | 162457 | 176176
14 | 39:09.02 | 2:45.14 | 176177 | 188565
15 | 41:54.16 | 3:03.53 | 188566 | 202343
16 | 44:57.69 | 3:00.06 | 202344 | 215849
17 | 47:58.00 | 2:53.03 | 215850 | 228827
18 | 50:51.03 | 2:55.40 | 228828 | 241992
19 | 53:46.43 | 3:15.07 | 241993 | 256624
20 | 57:01.50 | 2:54.33 | 256625 | 269707
Track 1
Filename I:\Compay Segundo - Hey Caramba\01 - Hey Caramba.wav
Pre-gap length 0:00:02.00
Peak level 99.9 %
Track quality 100.0 %
Copy CRC CF71A018
Track not present in AccurateRip database
Copy OK
Track 2
Filename I:\Compay Segundo - Hey Caramba\02 - El Pequinto E Coleto.wav
Pre-gap length 0:00:01.73
Peak level 89.1 %
Track quality 99.9 %
Copy CRC F77908B3
Track not present in AccurateRip database
Copy OK
Track 3
Filename I:\Compay Segundo - Hey Caramba\03 - Mi Son Oriental.wav
Pre-gap length 0:00:01.72
Peak level 99.9 %
Track quality 99.9 %
Copy CRC 96A3F039
Track not present in AccurateRip database
Copy OK
Track 4
Filename I:\Compay Segundo - Hey Caramba\04 - La Calabaza.wav
Pre-gap length 0:00:02.00
Peak level 100.0 %
Track quality 100.0 %
Copy CRC 8102121B
Track not present in AccurateRip database
Copy OK
Track 5
Filename I:\Compay Segundo - Hey Caramba\05 - El Gallo E' Jando.wav
Pre-gap length 0:00:01.71
Peak level 87.0 %
Track quality 100.0 %
Copy CRC 261A7237
Track not present in AccurateRip database
Copy OK
Track 6
Filename I:\Compay Segundo - Hey Caramba\06 - Jaava Leva.wav
Pre-gap length 0:00:01.70
Peak level 95.5 %
Track quality 99.9 %
Copy CRC E40308F4
Track not present in AccurateRip database
Copy OK
Track 7
Filename I:\Compay Segundo - Hey Caramba\07 - Tu Novia Te Boto.wav
Pre-gap length 0:00:01.73
Peak level 99.9 %
Track quality 100.0 %
Copy CRC E55B1EC1
Track not present in AccurateRip database
Copy OK
Track 8
Filename I:\Compay Segundo - Hey Caramba\08 - Vicenta.wav
Pre-gap length 0:00:01.74
Peak level 83.1 %
Track quality 99.9 %
Copy CRC 51AFBEF9
Track not present in AccurateRip database
Copy OK
Track 9
Filename I:\Compay Segundo - Hey Caramba\09 - Yo Canta En El Llano.wav
Pre-gap length 0:00:01.72
Peak level 100.0 %
Track quality 100.0 %
Copy CRC 7DEFBAA4
Track not present in AccurateRip database
Copy OK
Track 10
Filename I:\Compay Segundo - Hey Caramba\10 - Se Seco El Arroyiyo.wav
Pre-gap length 0:00:01.74
Peak level 84.0 %
Track quality 100.0 %
Copy CRC 8A2374ED
Track not present in AccurateRip database
Copy OK
Track 11
Filename I:\Compay Segundo - Hey Caramba\11 - Baya Y Tapa Al Olla.wav
Pre-gap length 0:00:01.73
Peak level 89.1 %
Track quality 100.0 %
Copy CRC 0DE936ED
Track not present in AccurateRip database
Copy OK
Track 12
Filename I:\Compay Segundo - Hey Caramba\12 - El Parana.wav
Pre-gap length 0:00:02.01
Peak level 87.4 %
Track quality 100.0 %
Copy CRC F377F5E2
Track not present in AccurateRip database
Copy OK
Track 13
Filename I:\Compay Segundo - Hey Caramba\13 - Cuembre Tangana.wav
Pre-gap length 0:00:01.70
Peak level 88.1 %
Track quality 99.9 %
Copy CRC 916E55B6
Track not present in AccurateRip database
Copy OK
Track 14
Filename I:\Compay Segundo - Hey Caramba\14 - San Luisera.wav
Pre-gap length 0:00:01.73
Peak level 89.0 %
Track quality 100.0 %
Copy CRC F9A004D0
Track not present in AccurateRip database
Copy OK
Track 15
Filename I:\Compay Segundo - Hey Caramba\15 - Como El Macao, Candela.wav
Pre-gap length 0:00:01.70
Peak level 70.7 %
Track quality 100.0 %
Copy CRC F9E9E4FA
Track not present in AccurateRip database
Copy OK
Track 16
Filename I:\Compay Segundo - Hey Caramba\16 - Noche Buena.wav
Pre-gap length 0:00:02.00
Peak level 87.1 %
Track quality 100.0 %
Copy CRC 85214F20
Track not present in AccurateRip database
Copy OK
Track 17
Filename I:\Compay Segundo - Hey Caramba\17 - Cuando El Rio Suena.wav
Pre-gap length 0:00:01.67
Peak level 86.0 %
Track quality 100.0 %
Copy CRC C40A6606
Track not present in AccurateRip database
Copy OK
Track 18
Filename I:\Compay Segundo - Hey Caramba\18 - Tente En Pie.wav
Pre-gap length 0:00:01.63
Peak level 95.5 %
Track quality 100.0 %
Copy CRC 240E7ABB
Track not present in AccurateRip database
Copy OK
Track 19
Filename I:\Compay Segundo - Hey Caramba\19 - Yo Domino.wav
Pre-gap length 0:00:01.60
Peak level 100.0 %
Track quality 100.0 %
Copy CRC 3197D360
Track not present in AccurateRip database
Copy OK
Track 20
Filename I:\Compay Segundo - Hey Caramba\20 - Descripcion De Un Sueno.wav
Pre-gap length 0:00:01.73
Peak level 95.8 %
Track quality 100.0 %
Copy CRC 996200C3
Track not present in AccurateRip database
Copy OK
None of the tracks are present in the AccurateRip database
No errors occurred
End of status report
09:47
283
Нет комментариев. Ваш будет первым!