Поиск

(Brazilian Forro/Folk) Geraldo Azevedo - Raizes e Frutos - 1998, FLAC (image+.cue), lossless

Треклист:
Geraldo Azevedo - Raízes e Frutos
Жанр: Brazilian Forro/Folk
Год выпуска диска: 1998
Производитель диска: BMG Brasil Ltda. (RCA) - 74321 57879-2 - Brazil
Аудио кодек: FLAC
Тип рипа: image+.cue
Битрейт аудио: lossless
Продолжительность: 37:17 + 33:16
Трэклист:
Disc 1
01 Talvez seja real
02 Barcarola do São Francisco
03 Caravana
04 Você se lembra
05 Dia branco
06 Letras negras
07 Estrela guia
08 Parceiro das delícias
09 Tanto querer
Disc 2
01 Dona da minha cabeça
02 Moça bonita
03 Táxi lunar
04 O amanhã é distante
05 Chorando e cantando
06 Sétimo céu
07 Morena linda flor
08 Rasgo de lua
09 Beleza agreste
10 For all para todos
 
Scans
 
Info/Информация
Geraldo Azevedo - Raízes e frutos
1998 - BMG
Жералду Азеведу (Petrolina, Январь 11, 1945) композитор, певец и гитарист Пернамбуку. Самоучка, 12 лет играл на гитаре. Он начал свою музыкальную карьеру, когда в возрасте 18 лет, он переехал в Ресифи в кабинет, где он встретился Teca Calazans, певица нана Васконселос, перкуссия, Марсело Мело и Toinho Алвес, которые входили в составе фолк-группы, для которых строительство не изменилось. В 1967 году он переехал в Рио-де-Жанейро, где он работал с певицей Элиана Питтман. Он основал бесплатные квартета ", который после певицы Жералду Перейра в нескольких презентациях. Элиана Питтман певицы в 1968 году он записал ", который поднялся" Состав Жералду Асеведо. В начале 70-х, наряду с Пернамбуку Alceu Valença также формируется двойной, с хорошими показателями на фестивале Universitario да телевизор композиции тупой с "78s" и "Планетарные" пара привлекла внимание запись дискотеки Label Копакабана и 1972 начали с Alceu Валенса, его первый LP.
Geraldo Azevedo (Petrolina, 11 de janeiro de 1945) é um compositor, cantor e violonista pernambucano. Autodidata, aos 12 anos de idade já tocava violão. Iniciou sua trajetória musical quando, aos 18 anos, mudou-se para Recife a fim de estudar, onde conheceu Teca Calazans, cantora, Naná Vasconcelos, percussionista, Marcelo Melo e Toinho Alves que faziam parte do grupo folclórico Construção ao qual juntou-se. Em 1967, mudou-se para o Rio de Janeiro, onde trabalhou com a cantora Eliana Pittman. Fundou o Quarteto Livre que acompanhou o cantor Geraldo Vandré em diversas apresentações. A cantora Eliana Pittman em 1968, gravou "Aquela rosa" composição de Geraldo Azevedo. No início da década de 70, junto com o também pernambucano Alceu Valença formou dupla, com a boa performance no Festival Universitário da TV Tupi com as composições "78 rotações" e "Planetário" a dupla chamou a atenção da gravadora Discos Copacabana e em 1972, lançou com Alceu Valença, seu primeiro LP.
 
Disc 1
 
EAC Log
Exact Audio Copy V0.99 prebeta 5 from 4. May 2009
EAC extraction logfile from 11. November 2009, 17:39
Geraldo Azevedo / Raizes
Used drive : HL-DT-STDVDRAM GH20NS15 Adapter: 0 ID: 0
Read mode : Secure
Utilize accurate stream : Yes
Defeat audio cache : Yes
Make use of C2 pointers : No
Read offset correction : 667
Overread into Lead-In and Lead-Out : No
Fill up missing offset samples with silence : Yes
Delete leading and trailing silent blocks : No
Null samples used in CRC calculations : Yes
Used interface : Installed external ASPI interface
Used output format : User Defined Encoder
Selected bitrate : 1024 kBit/s
Quality : High
Add ID3 tag : No
Command line compressor : C:\Program Files\Exact Audio Copy\Flac\flac.exe
Additional command line options : -8 -A tukey(0.25) -A gauss(0.1875) -b 4096 -V -T "artist=%a" -T "title=%t" -T "album=%g" -T "date=%y" -T "tracknumber=%n" -T "genre=%m" %s --sector-align
TOC of the extracted CD
Track | Start | Length | Start sector | End sector
---------------------------------------------------------
1 | 0:00.00 | 3:27.02 | 0 | 15526
2 | 3:27.02 | 2:32.38 | 15527 | 26964
3 | 5:59.40 | 3:52.47 | 26965 | 44411
4 | 9:52.12 | 3:37.20 | 44412 | 60706
5 | 13:29.32 | 4:40.30 | 60707 | 81736
6 | 18:09.62 | 3:46.13 | 81737 | 98699
7 | 21:56.00 | 4:23.50 | 98700 | 118474
8 | 26:19.50 | 3:51.22 | 118475 | 135821
9 | 30:10.72 | 3:55.37 | 135822 | 153483
10 | 34:06.34 | 3:11.13 | 153484 | 167821
Range status and errors
Selected range
Filename D:\Torrents.ru\Geraldo Azevedo\Geraldo Azevedo - Raízes e Frutos\Geraldo Azevedo - Raízes e Frutos.wav
Peak level 100.0 %
Range quality 100.0 %
Test CRC 54790E71
Copy CRC 54790E71
Copy OK
No errors occurred
AccurateRip summary
Track 1 cannot be verified as accurate (confidence 1) [E0DDFF70], AccurateRip returned [71694E17]
Track 2 cannot be verified as accurate (confidence 1) [A53B61B9], AccurateRip returned [4007EF5B]
Track 3 cannot be verified as accurate (confidence 1) [8F4BCE5A], AccurateRip returned [53C1E23D]
Track 4 cannot be verified as accurate (confidence 1) [5ADFE3A4], AccurateRip returned [6F13B221]
Track 5 cannot be verified as accurate (confidence 1) [3E299ECF], AccurateRip returned [962E5B8B]
Track 6 cannot be verified as accurate (confidence 1) [9E8D593C], AccurateRip returned [1BAB7999]
Track 7 cannot be verified as accurate (confidence 1) [2133D6CC], AccurateRip returned [6BD42AF4]
Track 8 cannot be verified as accurate (confidence 1) [5CF6BC62], AccurateRip returned [86174ED8]
Track 9 cannot be verified as accurate (confidence 1) [1D13CF4C], AccurateRip returned [8E6AE4FC]
Track 10 cannot be verified as accurate (confidence 1) [B54BF89E], AccurateRip returned [AA1E84E2]
No tracks could be verified as accurate
End of status report
 
Audiochecker
AUDIOCHECKER v2.0 beta (build 457) - by Dester - opdester@freemail.hu
~~~~~~~~~~~~~~~~~~~~~~~~~~~~~~~~~~
-=== DO NOT EDIT THIS FILE! ===-
Path: ...\CD 1 - Raízes
1 -=- Geraldo Azevedo - Raízes e Frutos CD 1.flac -=- CDDA (100%)
107431556
 
Tau Analyzer
 
Disc 2
 
EAC Log
Exact Audio Copy V0.99 prebeta 5 from 4. May 2009
EAC extraction logfile from 11. November 2009, 17:57
Geraldo Azevedo / Raízes E Frutos - Frutos
Used drive : HL-DT-STDVDRAM GH20NS15 Adapter: 0 ID: 0
Read mode : Secure
Utilize accurate stream : Yes
Defeat audio cache : Yes
Make use of C2 pointers : No
Read offset correction : 667
Overread into Lead-In and Lead-Out : No
Fill up missing offset samples with silence : Yes
Delete leading and trailing silent blocks : No
Null samples used in CRC calculations : Yes
Used interface : Installed external ASPI interface
Used output format : User Defined Encoder
Selected bitrate : 1024 kBit/s
Quality : High
Add ID3 tag : No
Command line compressor : C:\Program Files\Exact Audio Copy\Flac\flac.exe
Additional command line options : -8 -A tukey(0.25) -A gauss(0.1875) -b 4096 -V -T "artist=%a" -T "title=%t" -T "album=%g" -T "date=%y" -T "tracknumber=%n" -T "genre=%m" %s --sector-align
TOC of the extracted CD
Track | Start | Length | Start sector | End sector
---------------------------------------------------------
1 | 0:00.00 | 3:42.37 | 0 | 16686
2 | 3:42.37 | 3:06.00 | 16687 | 30636
3 | 6:48.37 | 3:50.73 | 30637 | 47959
4 | 10:39.35 | 3:30.42 | 47960 | 63751
5 | 14:10.02 | 3:19.03 | 63752 | 78679
6 | 17:29.05 | 5:10.65 | 78680 | 101994
7 | 22:39.70 | 3:48.42 | 101995 | 119136
8 | 26:28.37 | 2:50.55 | 119137 | 131941
9 | 29:19.17 | 3:57.03 | 131942 | 149719
Range status and errors
Selected range
Filename D:\Torrents.ru\Geraldo Azevedo\Geraldo Azevedo - Raízes e Frutos\CD 2 - Frutos\Geraldo Azevedo - Raízes e Frutos CD 2.wav
Peak level 100.0 %
Range quality 100.0 %
Test CRC AAB5D1B6
Copy CRC AAB5D1B6
Copy OK
No errors occurred
AccurateRip summary
Track 1 accurately ripped (confidence 1) [794F6E07]
Track 2 cannot be verified as accurate (confidence 1) [F5EF8F4D], AccurateRip returned [F5F3F50B]
Track 3 accurately ripped (confidence 1) [6C4261D2]
Track 4 cannot be verified as accurate (confidence 1) [3FBED57C], AccurateRip returned [C2F415EE]
Track 5 accurately ripped (confidence 1) [2027A177]
Track 6 cannot be verified as accurate (confidence 1) [6297D8A8], AccurateRip returned [4CCBD8A8]
Track 7 cannot be verified as accurate (confidence 1) [DF6ACAD4], AccurateRip returned [0D7118D5]
Track 8 accurately ripped (confidence 1) [30AFAA73]
Track 9 accurately ripped (confidence 1) [FA14999B]
5 track(s) accurately ripped
4 track(s) could not be verified as accurate
Some tracks could not be verified as accurate
End of status report
 
Audiochecker
AUDIOCHECKER v2.0 beta (build 457) - by Dester - opdester@freemail.hu
~~~~~~~~~~~~~~~~~~~~~~~~~~~~~~~~~~
-=== DO NOT EDIT THIS FILE! ===-
Path: ...\CD 2 - Frutos
1 -=- Geraldo Azevedo - Raízes e Frutos CD 2.flac -=- CDDA (100%)
107935364
 
Tau Analyzer
По всем вопросам пишите личное сообщение пользователю M0p94ok.
08:48
197
Нет комментариев. Ваш будет первым!