Поиск

(Klezmer/Jazz) The Cracow Klezmer Band (John Zorn) - Balan (Book Of Angels Volume 5) - 2006, FLAC (image+.cue)+scans, lossless

Треклист:
The Cracow Klezmer Band (John Zorn) - Balan (Book Of Angels Volume 5)
Жанр: Klezmer/Jazz
Год выпуска диска: 2006
Производитель диска: Tzadik/Poland
Аудио кодек: FLAC
Тип рипа: image+.cue
Битрейт аудио: lossless
Продолжительность: ~ 40 min
Трэклист:
1 Zuriel - 4:18
2 Suria - 7:56
3 Lirael - 6:07
4 Kadosh - 2:43
5 Haniel - 5:02
6 Jehoel - 5:17
7 Asbeel - 5:05
8 Aniel - 3:48
 
Отчёт EAC
Exact Audio Copy V0.99 prebeta 4 from 23. January 2008
Отчёт EAC об извлечении, выполненном 27. августа 2009, 17:36
The Cracow Klezmer Band / Balan: Book of Angels, Vol. 5
Дисковод: PBDS DVD+-RW DS-8W1P Adapter: 0 ID: 0
Режим чтения : Достоверность
Использование точного потока : Да
Отключение кэша аудио : Да
Использование указателей C2 : Нет
Коррекция смещения при чтении : 594
Способность читать области Lead-in и Lead-out : Нет
Заполнение пропущенных сэмплов тишиной : Да
Удаление блоков с тишиной в начале и конце : Нет
При вычислениях CRC использовались нулевые сэмплы : Нет
Интерфейс : Встроенный Win32-интерфейс для Win NT/2000
Выходной формат : Внутренние WAV-операции
Формат сэмплов : 44.100 Гц; 16 бит; стерео
TOC извлечённого CD
Трек | Старт | Длительность | Начальный сектор | Конечный сектор
---------------------------------------------------------------------
1 | 0:00.00 | 4:18.67 | 0 | 19416
2 | 4:18.67 | 7:56.24 | 19417 | 55140
3 | 12:15.16 | 6:07.16 | 55141 | 82681
4 | 18:22.32 | 2:43.15 | 82682 | 94921
5 | 21:05.47 | 5:02.57 | 94922 | 117628
6 | 26:08.29 | 5:17.25 | 117629 | 141428
7 | 31:25.54 | 5:05.04 | 141429 | 164307
8 | 36:30.58 | 3:48.48 | 164308 | 181455
Характеристики диапазона извлечения и сообщения об ошибках
Выбранный диапазон
Имя файла D:\Upload\The Cracow Klezmer Band - Balan Book of Angels, Vol. 5\The Cracow Klezmer Band - Balan Book of Angels, Vol. 5.wav
Пиковый уровень 100.0 %
Качество диапазона 100.0 %
CRC копии 9A887A82
Копирование... OK
Ошибок не произошло
AccurateRip: сводка
Трек 1 точное извлечение (доверие 4) [8B6D1C50]
Трек 2 точное извлечение (доверие 4) [1F996B47]
Трек 3 точное извлечение (доверие 4) [8BECACDB]
Трек 4 точное извлечение (доверие 4) [2E78AB4A]
Трек 5 точное извлечение (доверие 4) [8F5873D7]
Трек 6 точное извлечение (доверие 4) [E9C75C1B]
Трек 7 точное извлечение (доверие 4) [604711DE]
Трек 8 точное извлечение (доверие 4) [AD88ED71]
Все треки извлечены точно
Конец отчёта
Jamie Saft Trio - Astaroth (Book Of Angels Volume 1)
Masada String Trio - Azazel (Book Of Angels Volume 2)
Mark Feldman And Sylvie Courvoisier - Malphas (Book Of Angels Volume 3)
Koby Israelite - Orobas (Book Of Angels Volume 4)
Эту ты теперь качаешь или будешь качать:)
Uri Caine - Moloch (Book Of Angels Volume 6)
Marc Ribot - Asmodeus (Book Of Angels Volume 7)
Erik Friedlander - Volac (Book Of Angels Volume 8)
Secret Chiefs 3 - Xaphan (Book Of Angels Volume 9)
Bar Kokhba Sextet- Lucifer (Book Of Angels Volume 10)
Medeski Martin & Wood - Zaebos (Book Of Angels Volume 11)
По всем вопросам пишите личное сообщение пользователю M0p94ok.
08:49
307
Нет комментариев. Ваш будет первым!