Поиск

(Bossa Nova/Latin Jazz) Caetano Veloso - Caetano Veloso (aka London, London) - 1971, FLAC (image+.cue), lossless

(Bossa Nova/Latin Jazz) Caetano Veloso - Caetano Veloso (aka London, London) - 1971, FLAC (image+.cue), lossless
Треклист:
Caetano Veloso - Caetano Veloso (aka London, London)
Жанр: Bossa Nova/Latin Jazz
Год выпуска диска: 1971
Производитель диска: Polygram Do Brasil Ltda. (Philips) - 838 561-2 - Brazil
Аудио кодек: FLAC
Тип рипа: image+.cue
Битрейт аудио: lossless
Продолжительность: 35:54
Трэклист:
1. A Little More Blue (Caetano Veloso) – 4:44
2. London, London (Caetano Veloso) – 4:11
3. Maria Bethania (Caetano Veloso) – 6:57
4. If You Hold a Stone (Caetano Veloso) – 6:02
5. Shoot Me Dead (Caetano Veloso) – 3:19
6. In the Hot Sun of a Christmas Day (Gilberto Gil, Caetano Veloso) – 3:13
7. Asa Branca (Luiz Gonzaga, Humberto Teixeira) – 7:26
 
Scans
 
Info/ Информация
Caetano Veloso является третьим Одноименный альбом Caetano Veloso. Он был записан в Англии, когда художник находился в ссылке, введенные правительством Бразилии времени за то, что подрывные. Она пела в основном на английском языке, отличающихся многие из его предыдущих альбомов, она имеет печальный тон на всем его протяжении, которое отражает его чувства по поводу находясь вдали от родины, его семьи и друзей. Она была выпущена первая в Европе, а затем в Бразилию, в 1971 году. В буклете альбома:
Caetano Veloso была суперзвезда в Бразилии. Он приехал в Англию, и решили сделать Лондон своим домом летом 1969 года. Французский Санкт-то сказал, что это опасно как для писателя, чтобы попробовать новый язык, как и для верующего попробовать новую религию: он может потерять свою душу.
Caetano принята Английский для песни на этом альбоме, чтобы передать свои первые впечатления от жизни в чужой стране. Песни служить двусторонний зеркало, уделяя особое внимание мыслями и воспоминаниями о доме и отсутствие друзей и отражающих его реакцию на новые, но дружественные окружающей среде. "A Little More синий" и "Лондон, Лондон" была первой песней быть написана после ухода Бразилии. "Мария Bethânia" является одним из наиболее популярных пение звезды в Бразилии, она является также сестры Каэтано's. "Если вы держите камень", который посвящен Лигия Кларк и "Shoot Me Dead" являются современным пословиц. "В жаркое солнце Рождество" эпический скрывается за дымовой завесой "Кэрол. "ASA Бранка", которая была написана Луис Гонзага, это песня о миграции и домой болезнь ...
Caetano Veloso, também conhecido como London, London, é o terceiro álbum a solo de Caetano Veloso, editado em 1971 pela Philips. Composto durante o exílio político de Veloso em Londres, reflecte essa experiência numa toada melancólica nos antípodas do fulgor dos seus álbuns anteriores. A maioria das canções deste álbum são cantadas em inglês.
Caetano Veloso is the third self-titled album by Caetano Veloso. It was recorded in England, when the artist was in an exile imposed by the Brazilian government of the time for being subversive. It is mostly sung in English, differing a lot from his previous albums, it has a sad tone throughout it, which reflects his feelings about being far from his home country, his family, and friends. It was released first in Europe, and then in Brazil, in 1971. From the album booklet:
Caetano Veloso was a superstar in Brazil. He came to England and decided to make London his home in the summer of 1969. A French saint once said that it is as dangerous for a writer to try a new language as it is for a believer to try a new religion: he can lose his soul.
Caetano adopted English for the lyrics on this album to convey his first impressions of living in a foreign country. The songs serve as a two-way mirror, focusing thoughts and memories of home and absent friends and reflecting his reaction to a new but friendly environment. "A Little More Blue" and "London, London" were the very first songs to be written after leaving Brazil. "Maria Bethânia" is one of the most popular singing stars in Brazil; she is also Caetano's sister. "If You Hold a Stone", which is dedicated to Lygia Clark, and "Shoot Me Dead" are contemporary proverbs. "In The Hot Sun of a Christmas Day" an epic hiding behind the cloak of a carol. "Asa Branca", which was written by Luiz Gonzaga, is a song about migration and home sickness...
"When your tears wet the dry land
and spread the green of your eyes
over the dead trees
I promise you that
Then I'll be back, dear
Then I'll be back, dear
Then I'll be back."
* Johnny Clamp – Photography
* Linda Glover – Cover Design
* John Iles – Engineer
* Ralph Mace – Producer
* Lou Reizner – Producer
* Phil Ryan – String Arrangements
* John Timperley – Engineer
* Caetano Veloso – Guitar, Vocals
 
EAC Log
Exact Audio Copy V0.99 prebeta 5 from 4. May 2009
EAC extraction logfile from 13. November 2009, 12:18
Caetano Veloso / Caetano Veloso
Used drive : HL-DT-STDVDRAM GH20NS15 Adapter: 0 ID: 0
Read mode : Secure
Utilize accurate stream : Yes
Defeat audio cache : Yes
Make use of C2 pointers : No
Read offset correction : 667
Overread into Lead-In and Lead-Out : No
Fill up missing offset samples with silence : Yes
Delete leading and trailing silent blocks : No
Null samples used in CRC calculations : Yes
Used interface : Installed external ASPI interface
Used output format : User Defined Encoder
Selected bitrate : 1024 kBit/s
Quality : High
Add ID3 tag : No
Command line compressor : C:\Program Files\Exact Audio Copy\Flac\flac.exe
Additional command line options : -8 -A tukey(0.25) -A gauss(0.1875) -b 4096 -V -T "artist=%a" -T "title=%t" -T "album=%g" -T "date=%y" -T "tracknumber=%n" -T "genre=%m" %s --sector-align
TOC of the extracted CD
Track | Start | Length | Start sector | End sector
---------------------------------------------------------
1 | 0:00.00 | 4:44.20 | 0 | 21319
2 | 4:44.20 | 4:11.03 | 21320 | 40147
3 | 8:55.23 | 6:57.47 | 40148 | 71469
4 | 15:52.70 | 6:02.13 | 71470 | 98632
5 | 21:55.08 | 3:19.10 | 98633 | 113567
6 | 25:14.18 | 3:13.50 | 113568 | 128092
7 | 28:27.68 | 7:26.17 | 128093 | 161559
Range status and errors
Selected range
Filename D:\Torrents.ru\Caetano Veloso\Caetano Veloso - Caetano Veloso (aka London, London)\Caetano Veloso - Caetano Veloso (aka London, London).wav
Peak level 97.3 %
Range quality 98.4 %
Test CRC 81D41DCD
Copy CRC 81D41DCD
Copy OK
No errors occurred
AccurateRip summary
Track 1 not present in database
Track 2 not present in database
Track 3 not present in database
Track 4 not present in database
Track 5 not present in database
Track 6 not present in database
Track 7 not present in database
None of the tracks are present in the AccurateRip database
End of status report
 
Audiochecker
AUDIOCHECKER v2.0 beta (build 457) - by Dester - opdester@freemail.hu
~~~~~~~~~~~~~~~~~~~~~~~~~~~~~~~~~~
-=== DO NOT EDIT THIS FILE! ===-
Path: ...\Caetano Veloso - Caetano Veloso (aka London, London)
1 -=- Caetano Veloso - Caetano Veloso (aka London, London).flac -=- CDDA (100%)
52947924
 
Tau Analyzer
09:49
323
Нет комментариев. Ваш будет первым!