Поиск

(World Fusion/Latin/Progressive rock) Sintesis - En Busca De Una Nueva Flor - 1978, FLAC (tracks + .cue + scans), lossless

Треклист:
Sintesis - En Busca De Una Nueva Flor
Жанр: World Fusion/Latin/Progressive rock
Год выпуска диска: 1997
Страна: Куба
Производитель диска: Мексика (Sol & Deneb CD SD03)
Аудио кодек: FLAC
Тип рипа: tracks + .cue
Битрейт аудио: lossless
Продолжительность: 54:13
Трэклист:
1. Nueve Ejemplares... No Tan Raros (8:20)
2. Ven A Encontrarnos (3:17)
3. Primera Noche (7:34)
4. Somos La Flor (6:22)
5. Poema (5:32)
6. En Busca De Una Nueva Flor (7:04)
Bonus tracks (1981):
7. Variaciones Sobre Un Zapateo (6:27)
8. Elogio De La Danza (9:37)
Доп. информация:
Информация о группе
Состав:
Miguel (Mike) Porcel - vocals, 12 string guitar (1-6)
Jose Maria Vitier - piano, keyboards (1-6)
Carlos Alfonso - vocals, guitar
Ele Valdes - vocals, synthesizer
Silvia Acea - vocals, organ
Eliseo Pino - vocals, acoustic guitar (1-6)
Fernando Calveiro - guitar
Enrique Lafuente - bass
Frank Padilla - drums
Juan Carlos Valladares - piano, vocals (7,8)
Pablo Menendez - guitars (7,8)
 
Отчёт EAC
Exact Audio Copy V0.99 prebeta 4 from 23. January 2008
EAC extraction logfile from 9. November 2009, 17:21
Sintesis / En Busca De Una Nueva Flor
Used drive : ASUS DRW-2014S1 Adapter: 1 ID: 0
Read mode : Secure
Utilize accurate stream : Yes
Defeat audio cache : Yes
Make use of C2 pointers : No
Read offset correction : 6
Overread into Lead-In and Lead-Out : No
Fill up missing offset samples with silence : Yes
Delete leading and trailing silent blocks : No
Null samples used in CRC calculations : Yes
Used interface : Installed external ASPI interface
Gap handling : Appended to previous track
Used output format : User Defined Encoder
Selected bitrate : 768 kBit/s
Quality : High
Add ID3 tag : No
Command line compressor : C:\Program Files\Exact Audio Copy\FLAC\FLAC.EXE
Additional command line options : -6 -V -T "ARTIST=%a" -T "TITLE=%t" -T "ALBUM=%g" -T "DATE=%y" -T "TRACKNUMBER=%n" -T "GENRE=%m" -T "COMMENT=%e" %s -o %d
TOC of the extracted CD
Track | Start | Length | Start sector | End sector
---------------------------------------------------------
1 | 0:00.00 | 8:20.19 | 0 | 37518
2 | 8:20.19 | 3:17.02 | 37519 | 52295
3 | 11:37.21 | 7:34.04 | 52296 | 86349
4 | 19:11.25 | 6:22.02 | 86350 | 115001
5 | 25:33.27 | 5:32.02 | 115002 | 139903
6 | 31:05.29 | 7:04.05 | 139904 | 171708
7 | 38:09.34 | 6:27.01 | 171709 | 200734
8 | 44:36.35 | 9:36.67 | 200735 | 244001
Track 1
Filename C:\byPr0gger\Sintesis (Cuba) - En Busca De Una Nueva Flor (1978 - 1997, Sol & Deneb)[FLAC]\01. Nueve Ejemplares... No Tan Raros.wav
Pre-gap length 0:00:02.00
Peak level 100.0 %
Track quality 100.0 %
Test CRC 7902DB14
Copy CRC 7902DB14
Cannot be verified as accurate (confidence 1) [0A49BD95], AccurateRip returned [1E4DEEA5]
Copy OK
Track 2
Filename C:\byPr0gger\Sintesis (Cuba) - En Busca De Una Nueva Flor (1978 - 1997, Sol & Deneb)[FLAC]\02. Ven A Encontrarnos.wav
Peak level 100.0 %
Track quality 100.0 %
Test CRC 6D5BF008
Copy CRC 6D5BF008
Cannot be verified as accurate (confidence 1) [1744E400], AccurateRip returned [5F706B4D]
Copy OK
Track 3
Filename C:\byPr0gger\Sintesis (Cuba) - En Busca De Una Nueva Flor (1978 - 1997, Sol & Deneb)[FLAC]\03. Primera Noche.wav
Peak level 100.0 %
Track quality 100.0 %
Test CRC 520A2193
Copy CRC 520A2193
Cannot be verified as accurate (confidence 1) [2515AC30], AccurateRip returned [8623FE16]
Copy OK
Track 4
Filename C:\byPr0gger\Sintesis (Cuba) - En Busca De Una Nueva Flor (1978 - 1997, Sol & Deneb)[FLAC]\04. Somos La Flor.wav
Peak level 100.0 %
Track quality 100.0 %
Test CRC D65F2FCC
Copy CRC D65F2FCC
Cannot be verified as accurate (confidence 1) [D9EB3644], AccurateRip returned [9E221BCC]
Copy OK
Track 5
Filename C:\byPr0gger\Sintesis (Cuba) - En Busca De Una Nueva Flor (1978 - 1997, Sol & Deneb)[FLAC]\05. Poema.wav
Peak level 100.0 %
Track quality 100.0 %
Test CRC CC186544
Copy CRC CC186544
Cannot be verified as accurate (confidence 1) [9AD8278A], AccurateRip returned [2727F88E]
Copy OK
Track 6
Filename C:\byPr0gger\Sintesis (Cuba) - En Busca De Una Nueva Flor (1978 - 1997, Sol & Deneb)[FLAC]\06. En Busca De Una Nueva Flor.wav
Peak level 100.0 %
Track quality 99.9 %
Test CRC 977C0CB7
Copy CRC 977C0CB7
Cannot be verified as accurate (confidence 1) [FE5EDC80], AccurateRip returned [32724D35]
Copy OK
Track 7
Filename C:\byPr0gger\Sintesis (Cuba) - En Busca De Una Nueva Flor (1978 - 1997, Sol & Deneb)[FLAC]\07. Variaciones Sobre Un Zapateo (Bonus Track).wav
Peak level 100.0 %
Track quality 100.0 %
Test CRC B655F867
Copy CRC B655F867
Cannot be verified as accurate (confidence 1) [7AE81D98], AccurateRip returned [8E3046AE]
Copy OK
Track 8
Filename C:\byPr0gger\Sintesis (Cuba) - En Busca De Una Nueva Flor (1978 - 1997, Sol & Deneb)[FLAC]\08. Elogio De La Danza (Bonus Track).wav
Peak level 100.0 %
Track quality 100.0 %
Test CRC B4CD947F
Copy CRC B4CD947F
Cannot be verified as accurate (confidence 1) [BA67F520], AccurateRip returned [9F839D57]
Copy OK
No tracks could be verified as accurate
You may have a different pressing from the one(s) in the database
No errors occurred
End of status report
 
auCDtect
auCDtect: CD records authenticity detector, version 0.8.2
Copyright (c) 2004 Oleg Berngardt. All rights reserved.
Copyright (c) 2004 Alexander Djourik. All rights reserved.
------------------------------------------------------------
Processing file: [01. Nueve Ejemplares... No Tan Raros.wav]
Detected average hi-boundary frequency: 2.033132e+004 Hz
Detected average lo-boundary frequency: 1.450853e+004 Hz
Detected average hi-cut frequency: 2.156429e+004 Hz
Detected average lo-cut frequency: 1.149588e+004 Hz
Maximum probablis boundary frequency: 2.189100e+004 Hz
Coefficient of nonlinearity of a phase: 6.827078e-001
First order smothness: 3.832869e-001
Second order smothness: 7.270195e-001
------------------------------------------------------------
This track looks like CDDA with probability 99%
------------------------------------------------------------
Processing file: [02. Ven A Encontrarnos.wav]
Detected average hi-boundary frequency: 2.009401e+004 Hz
Detected average lo-boundary frequency: 1.393344e+004 Hz
Detected average hi-cut frequency: 2.145122e+004 Hz
Detected average lo-cut frequency: 9.255775e+003 Hz
Maximum probablis boundary frequency: 2.189100e+004 Hz
Coefficient of nonlinearity of a phase: 4.486005e-001
First order smothness: 3.206215e-001
Second order smothness: 6.652542e-001
------------------------------------------------------------
This track looks like CDDA with probability 100%
------------------------------------------------------------
Processing file: [03. Primera Noche.wav]
Detected average hi-boundary frequency: 2.036376e+004 Hz
Detected average lo-boundary frequency: 1.348336e+004 Hz
Detected average hi-cut frequency: 2.134904e+004 Hz
Detected average lo-cut frequency: 1.304503e+004 Hz
Maximum probablis boundary frequency: 2.189100e+004 Hz
Coefficient of nonlinearity of a phase: 1.273467e+000
First order smothness: 3.159509e-001
Second order smothness: 7.558282e-001
------------------------------------------------------------
This track looks like CDDA with probability 100%
------------------------------------------------------------
Processing file: [04. Somos La Flor.wav]
Detected average hi-boundary frequency: 2.013527e+004 Hz
Detected average lo-boundary frequency: 1.260278e+004 Hz
Detected average hi-cut frequency: 2.158536e+004 Hz
Detected average lo-cut frequency: 1.055715e+004 Hz
Maximum probablis boundary frequency: 2.189100e+004 Hz
Coefficient of nonlinearity of a phase: 3.474841e-001
First order smothness: 3.622449e-001
Second order smothness: 6.902332e-001
------------------------------------------------------------
This track looks like CDDA with probability 99%
------------------------------------------------------------
Processing file: [05. Poema.wav]
Detected average hi-boundary frequency: 2.007422e+004 Hz
Detected average lo-boundary frequency: 1.366364e+004 Hz
Detected average hi-cut frequency: 2.144148e+004 Hz
Detected average lo-cut frequency: 9.639037e+003 Hz
Maximum probablis boundary frequency: 2.189100e+004 Hz
Coefficient of nonlinearity of a phase: 7.552405e-001
First order smothness: 2.994966e-001
Second order smothness: 7.080537e-001
------------------------------------------------------------
This track looks like CDDA with probability 100%
------------------------------------------------------------
Processing file: [06. En Busca De Una Nueva Flor.wav]
Detected average hi-boundary frequency: 2.022125e+004 Hz
Detected average lo-boundary frequency: 1.335056e+004 Hz
Detected average hi-cut frequency: 2.157055e+004 Hz
Detected average lo-cut frequency: 1.145233e+004 Hz
Maximum probablis boundary frequency: 2.189100e+004 Hz
Coefficient of nonlinearity of a phase: 5.769530e-001
First order smothness: 3.929041e-001
Second order smothness: 6.642576e-001
------------------------------------------------------------
This track looks like CDDA with probability 100%
------------------------------------------------------------
Processing file: [07. Variaciones Sobre Un Zapateo (Bonus Track).wav]
Detected average hi-boundary frequency: 2.013370e+004 Hz
Detected average lo-boundary frequency: 1.261294e+004 Hz
Detected average hi-cut frequency: 2.156800e+004 Hz
Detected average lo-cut frequency: 7.434277e+003 Hz
Maximum probablis boundary frequency: 2.189100e+004 Hz
Coefficient of nonlinearity of a phase: 2.757939e-001
First order smothness: 3.750900e-001
Second order smothness: 6.781857e-001
------------------------------------------------------------
This track looks like CDDA with probability 99%
------------------------------------------------------------
Processing file: [08. Elogio De La Danza (Bonus Track).wav]
Detected average hi-boundary frequency: 2.014932e+004 Hz
Detected average lo-boundary frequency: 1.242626e+004 Hz
Detected average hi-cut frequency: 2.136708e+004 Hz
Detected average lo-cut frequency: 7.351053e+003 Hz
Maximum probablis boundary frequency: 2.189100e+004 Hz
Coefficient of nonlinearity of a phase: 4.270094e-001
First order smothness: 3.495896e-001
Second order smothness: 5.639788e-001
------------------------------------------------------------
This track looks like CDDA with probability 100%
Источник: интернет by pr0gger.
09:46
324
Нет комментариев. Ваш будет первым!