Поиск

(Latin Jazz) [CD] Eddie Palmieri - Vamonos Pa'l Monte - 1971 (2006), FLAC (tracks+.cue), lossless

Треклист:
Eddie Palmieri - Vamonos Pa'l Monte
Жанр: Latin Jazz
Носитель: CD
Страна-производитель диска: EU
Год издания: 1971 (2006)
Издатель (лейбл): Fania Records
Номер по каталогу: FANIA1039562
Аудиокодек: FLAC (*.flac)
Тип рипа: tracks+.cue
Битрейт аудио: lossless
Продолжительность: 34:12
Источник (релизер): loomz (what)
Наличие сканов в содержимом раздачи: сетевые
Треклист:
01. Revolt/La Libertad Logico (5:24)
02. Caminando (3:53)
03. Vamonos Pa'l Monte (7:07)
04. Viejo Socarron (6:10)
05. Yo No Se (4:14)
06. Comparsa de los Locos (7:24)
Состав:
Eddie Palmieri - band leader
Ismael Quintana - vocals
Bob Vianco - guitar
Jose Rodriguez - trombone
Alfredo Armentereos, Victor Paz, Charles Camilleri - trumpets
Ronnie Cuber - baritone saxophone
Pere Yellin - tenor saxophone
Nick Marrero - timbales, bongo
Eladio Perez Perez - conga
Arturo Franquiz - clave, coro
Monchito Munoz - bombo
Chorus:
Santos Colon, Justo Betancourt, Marcelino Guerra, Vayo El Indio, Elliot Ramero, Mario Munoz (Papaito)
 
Лог создания рипа
X Lossless Decoder version 20110611 (135.0)
XLD extraction logfile from 2011-06-18 20:37:01 -0400
Eddie Palmieri / Vamonos Pa'l Monte
Used drive : MATSHITA DVD-R UJ-857E (revision ZB0E)
Ripper mode : XLD Secure Ripper
Disable audio cache : OK for the drive with a cache less than 1375KiB
Make use of C2 pointers : NO
Read offset correction : 102
Max retry count : 100
Gap status : Analyzed, Appended
TOC of the extracted CD
Track | Start | Length | Start sector | End sector
---------------------------------------------------------
1 | 00:00:00 | 05:24:25 | 0 | 24324
2 | 05:24:25 | 03:53:28 | 24325 | 41827
3 | 09:17:53 | 07:06:56 | 41828 | 73833
4 | 16:24:34 | 06:10:08 | 73834 | 101591
5 | 22:34:42 | 04:13:61 | 101592 | 120627
6 | 26:48:28 | 07:23:45 | 120628 | 153897
AccurateRip Summary
Track 01 : OK (confidence 2)
Track 02 : OK (confidence 2)
Track 03 : OK (confidence 2)
Track 04 : OK (confidence 2)
Track 05 : OK (confidence 2)
Track 06 : OK (confidence 2)
->All tracks accurately ripped.
All Tracks
Album gain : -9.40 dB
Peak : 1.000000
Statistics
Read error : 0
Jitter error (maybe fixed) : 0
Retry sector count : 0
Damaged sector count : 0
Track 01
Filename : /Music/Compilations - Vamonos Pa'l Monte (2006) [FLAC]/01 Revolt / La Libertad Logico.flac
Pre-gap length : 00:02:00
Track gain : -9.77 dB
Peak : 0.993866
CRC32 hash (test run) : 73639DF5
CRC32 hash : 73639DF5
CRC32 hash (skip zero) : DB137218
AccurateRip signature : B57B03C1
->Accurately ripped! (confidence 2)
Statistics
Read error : 0
Jitter error (maybe fixed) : 0
Retry sector count : 0
Damaged sector count : 0
Track 02
Filename : /Music/Compilations - Vamonos Pa'l Monte (2006) [FLAC]/02 Caminando.flac
Pre-gap length : 00:02:00
Track gain : -10.82 dB
Peak : 0.993866
CRC32 hash (test run) : 638B1CF2
CRC32 hash : 638B1CF2
CRC32 hash (skip zero) : F0E59549
AccurateRip signature : F8A0615E
->Accurately ripped! (confidence 2)
Statistics
Read error : 0
Jitter error (maybe fixed) : 0
Retry sector count : 0
Damaged sector count : 0
Track 03
Filename : /Music/Compilations - Vamonos Pa'l Monte (2006) [FLAC]/03 Vamonos Pa'l Monte.flac
Pre-gap length : 00:02:00
Track gain : -9.79 dB
Peak : 1.000000
CRC32 hash (test run) : 09775BE7
CRC32 hash : 09775BE7
CRC32 hash (skip zero) : 9E970FB5
AccurateRip signature : 6E796F8C
->Accurately ripped! (confidence 2)
Statistics
Read error : 0
Jitter error (maybe fixed) : 0
Retry sector count : 0
Damaged sector count : 0
Track 04
Filename : /Music/Compilations - Vamonos Pa'l Monte (2006) [FLAC]/04 Viejo Socarron.flac
Pre-gap length : 00:02:00
Track gain : -7.98 dB
Peak : 1.000000
CRC32 hash (test run) : 474F0996
CRC32 hash : 474F0996
CRC32 hash (skip zero) : CC0FBA2A
AccurateRip signature : C5451DA6
->Accurately ripped! (confidence 2)
Statistics
Read error : 0
Jitter error (maybe fixed) : 0
Retry sector count : 0
Damaged sector count : 0
Track 05
Filename : /Music/Compilations - Vamonos Pa'l Monte (2006) [FLAC]/05 Yo No Se.flac
Pre-gap length : 00:02:00
Track gain : -8.97 dB
Peak : 1.000000
CRC32 hash (test run) : 8AB51BFD
CRC32 hash : 8AB51BFD
CRC32 hash (skip zero) : 7AC25EC0
AccurateRip signature : B4BC75DD
->Accurately ripped! (confidence 2)
Statistics
Read error : 0
Jitter error (maybe fixed) : 0
Retry sector count : 0
Damaged sector count : 0
Track 06
Filename : /Music/Compilations - Vamonos Pa'l Monte (2006) [FLAC]/06 Comparsa De Los Locos.flac
Pre-gap length : 00:02:00
Track gain : -8.23 dB
Peak : 1.000000
CRC32 hash (test run) : 35594643
CRC32 hash : 35594643
CRC32 hash (skip zero) : DAC4FB21
AccurateRip signature : 0D41D1F5
->Accurately ripped! (confidence 2)
Statistics
Read error : 0
Jitter error (maybe fixed) : 0
Retry sector count : 0
Damaged sector count : 0
No errors occurred
End of status report
 
Содержание индексной карты (.CUE)
TITLE "Vamonos Pa'l Monte"
PERFORMER "Eddie Palmieri"
REM GENRE "Jazz"
REM DATE "1971"
REM DISCID 4E080306
FILE "01 - Revolt-La Libertad Logico.wav" WAVE
TRACK 01 AUDIO
TITLE "Revolt/La Libertad Logico"
ISRC USDBB0600059
INDEX 01 00:00:00
TRACK 02 AUDIO
TITLE "Caminando"
ISRC USDBB0600060
INDEX 00 05:22:25
FILE "02 - Caminando.wav" WAVE
INDEX 01 00:00:00
TRACK 03 AUDIO
TITLE "Vamonos Pa'l Monte"
ISRC USDBB0600061
INDEX 00 03:51:28
FILE "03 - Vamonos Pa'l Monte.wav" WAVE
INDEX 01 00:00:00
TRACK 04 AUDIO
TITLE "Viejo Socarron"
ISRC USDBB0600062
INDEX 00 07:04:56
FILE "04 - Viejo Socarron.wav" WAVE
INDEX 01 00:00:00
TRACK 05 AUDIO
TITLE "Yo No Se"
ISRC USDBB0600063
INDEX 00 06:08:08
FILE "05 - Yo No Se.wav" WAVE
INDEX 01 00:00:00
TRACK 06 AUDIO
TITLE "Comparsa de los Locos"
ISRC USDBB0600064
INDEX 00 04:11:61
FILE "06 - Comparsa de los Locos.wav" WAVE
INDEX 01 00:00:00
 
Отчет CUETools
[CUETools log; Date: 15.07.2014 23:01:20; Version: 2.1.4]
[CTDB TOCID: fkptoPkPp2WnDVu1whxpqQqrYco-] found.
Track | CTDB Status
1 | (1/3) Accurately ripped
2 | (1/3) Accurately ripped
3 | (1/3) Accurately ripped
4 | (1/3) Accurately ripped
5 | (1/3) Accurately ripped
6 | (1/3) Accurately ripped
[AccurateRip ID: 0007e009-002a6575-4e080306] found.
Track [ CRC | V2 ] Status
01 [b57b03c1|9f638542] (2+0/2) Accurately ripped
02 [f8a0615e|e6555bb6] (2+0/2) Accurately ripped
03 [6e796f8c|43826e9f] (2+0/2) Accurately ripped
04 [c5451da6|056b6c8c] (2+0/2) Accurately ripped
05 [b4bc75dd|bae0d6c7] (2+0/2) Accurately ripped
06 [0d41d1f5|0042c251] (2+0/2) Accurately ripped
Track Peak [ CRC32 ] [W/O NULL]
-- 100,0 [90BF6983] [CD5C8C43]
01 99,3 [73639DF5] [DB137218]
02 99,3 [638B1CF2] [F0E59549]
03 100,0 [09775BE7] [9E970FB5]
04 100,0 [474F0996] [CC0FBA2A]
05 100,0 [8AB51BFD] [7AC25EC0]
06 100,0 [35594643] [DAC4FB21]
 
Review by John Bush
Eddie Palmieri's 1971 LP Vamonos Pa'l Monte moves easily from the nearly avant-garde trumpet-battle opener "Revolt/La Libertad Logico" into the new-era-meets-old "Caminando," complete with an excellent electric-piano solo by Palmieri himself. He also takes the lead on the seven-minute title-track jam, this time with organ (backed by brother Charlie), backed by a strong vocal chorus (Justo Betancourt, Santos Colon, Yayo el Indio) and the rugged timbales playing of Nick Marrero. Above and beyond the irresistible arrangements and intricate playing, Vamonos Pa'l Monte benefits from one of the best recording jobs of any early-'70s salsa record, each section -- and practically each musician -- vigorously separated with clear stereo. Though many fans consider it a transition record toward the compositional brilliance of The Sun of Latin Music, it's actually a much better record for fans of traditional salsa.
16:10
253
Нет комментариев. Ваш будет первым!