Поиск

(Latin Jazz) [CD] Eddie Palmieri - Vamonos Pa'l Monte - 1971 (1996), FLAC (tracks+.cue), lossless

(Latin Jazz) [CD] Eddie Palmieri - Vamonos Pa'l Monte - 1971 (1996), FLAC (tracks+.cue), lossless
Треклист:
Eddie Palmieri - Vamonos Pa'l Monte
Жанр: Latin Jazz
Носитель: CD
Страна-производитель диска: США
Год издания: 1971 (1996)
Издатель (лейбл): Fania Records
Аудиокодек: FLAC (*.flac)
Тип рипа: tracks+.cue
Битрейт аудио: lossless
Продолжительность: 34:26
Источник (релизер): vdown (what)
Наличие сканов в содержимом раздачи: нет
Треклист:
01. Revolt/La Libertad Logico (5:27)
02. Caminando (3:56)
03. Vamonos Pa'l Monte (7:11)
04. Viejo Socarron (6:13)
05. Yo No Se (4:15)
06. Comparsa de los Locos (7:24)
Состав:
Eddie Palmieri - band leader
Ismael Quintana - vocals
Bob Vianco - guitar
Jose Rodriguez - trombone
Alfredo Armentereos, Victor Paz, Charles Camilleri - trumpets
Ronnie Cuber - baritone saxophone
Pere Yellin - tenor saxophone
Nick Marrero - timbales, bongo
Eladio Perez Perez - conga
Arturo Franquiz - clave, coro
Monchito Munoz - bombo
Chorus:
Santos Colon, Justo Betancourt, Marcelino Guerra, Vayo El Indio, Elliot Ramero, Mario Munoz (Papaito)
 
Лог создания рипа
Exact Audio Copy V0.99 prebeta 4 from 23. January 2008
EAC extraction logfile from 13. April 2008, 14:52
Eddie Palmieri / Vamonos Pa'l Monte
Used drive : BENQ DVD DD DW1640 Adapter: 1 ID: 0
Read mode : Secure
Utilize accurate stream : Yes
Defeat audio cache : Yes
Make use of C2 pointers : No
Read offset correction : 618
Overread into Lead-In and Lead-Out : No
Fill up missing offset samples with silence : Yes
Delete leading and trailing silent blocks : No
Null samples used in CRC calculations : Yes
Used interface : Native Win32 interface for Win NT & 2000
Gap handling : Appended to previous track
Used output format : User Defined Encoder
Selected bitrate : 768 kBit/s
Quality : High
Add ID3 tag : No
Command line compressor : C:\Program Files\Exact Audio Copy\FLAC\FLAC.EXE
Additional command line options : -8 -V -T "ARTIST=%a" -T "TITLE=%t" -T "ALBUM=%g" -T "DATE=%y" -T "TRACKNUMBER=%n" -T "GENRE=%m" -T "COMMENT=EAC FLAC -8" %s
TOC of the extracted CD
Track | Start | Length | Start sector | End sector
---------------------------------------------------------
1 | 0:00.00 | 5:26.45 | 0 | 24494
2 | 5:26.45 | 3:56.22 | 24495 | 42216
3 | 9:22.67 | 7:10.53 | 42217 | 74519
4 | 16:33.45 | 6:12.67 | 74520 | 102486
5 | 22:46.37 | 4:15.33 | 102487 | 121644
6 | 27:01.70 | 7:23.65 | 121645 | 154934
Track 1
Filename D:\MP3\Eddie_Palmieri-Vamonos_Pa'l_Monte\01 - Revolt , La Libertad Logico.wav
Pre-gap length 0:00:02.00
Peak level 88.7 %
Track quality 100.0 %
Test CRC C8592177
Copy CRC C8592177
Track not present in AccurateRip database
Copy OK
Track 2
Filename D:\MP3\Eddie_Palmieri-Vamonos_Pa'l_Monte\02 - Caminando.wav
Pre-gap length 0:00:01.94
Peak level 79.9 %
Track quality 100.0 %
Test CRC BEBBD0E8
Copy CRC BEBBD0E8
Track not present in AccurateRip database
Copy OK
Track 3
Filename D:\MP3\Eddie_Palmieri-Vamonos_Pa'l_Monte\03 - Vamonos Pa'l Monte.wav
Pre-gap length 0:00:03.70
Peak level 94.3 %
Track quality 99.9 %
Test CRC 8D37296A
Copy CRC 8D37296A
Track not present in AccurateRip database
Copy OK
Track 4
Filename D:\MP3\Eddie_Palmieri-Vamonos_Pa'l_Monte\04 - Viejo Socarron.wav
Pre-gap length 0:00:03.17
Peak level 88.9 %
Track quality 99.9 %
Test CRC 94C19FA0
Copy CRC 94C19FA0
Track not present in AccurateRip database
Copy OK
Track 5
Filename D:\MP3\Eddie_Palmieri-Vamonos_Pa'l_Monte\05 - Yo No Se.wav
Pre-gap length 0:00:02.49
Peak level 79.6 %
Track quality 100.0 %
Test CRC 081BC989
Copy CRC 081BC989
Track not present in AccurateRip database
Copy OK
Track 6
Filename D:\MP3\Eddie_Palmieri-Vamonos_Pa'l_Monte\06 - Compalsa De Los Locos.wav
Pre-gap length 0:00:02.12
Peak level 90.3 %
Track quality 100.0 %
Test CRC 531E096C
Copy CRC 531E096C
Track not present in AccurateRip database
Copy OK
None of the tracks are present in the AccurateRip database
No errors occurred
End of status report
 
Содержание индексной карты (.CUE)
REM GENRE Jazz
REM DATE 1971
REM DISCID 53081106
REM COMMENT "ExactAudioCopy v0.99pb4"
PERFORMER "Eddie Palmieri"
TITLE "Vamonos Pa'l Monte"
FILE "01 - Revolt-La Libertad Logico.wav" WAVE
TRACK 01 AUDIO
TITLE "Revolt/La Libertad Logico"
PERFORMER "Eddie Palmieri"
INDEX 01 00:00:00
TRACK 02 AUDIO
TITLE "Caminando"
PERFORMER "Eddie Palmieri"
INDEX 00 05:24:49
FILE "02 - Caminando.wav" WAVE
INDEX 01 00:00:00
TRACK 03 AUDIO
TITLE "Vamonos Pa'l Monte"
PERFORMER "Eddie Palmieri"
INDEX 00 03:52:44
FILE "03 - Vamonos Pa'l Monte.wav" WAVE
INDEX 01 00:00:00
TRACK 04 AUDIO
TITLE "Viejo Socarron"
PERFORMER "Eddie Palmieri"
INDEX 00 07:07:40
FILE "04 - Viejo Socarron.wav" WAVE
INDEX 01 00:00:00
TRACK 05 AUDIO
TITLE "Yo No Se"
PERFORMER "Eddie Palmieri"
INDEX 00 06:10:30
FILE "05 - Yo No Se.wav" WAVE
INDEX 01 00:00:00
TRACK 06 AUDIO
TITLE "Comparsa de los Locos"
PERFORMER "Eddie Palmieri"
INDEX 00 04:13:24
FILE "06 - Comparsa de los Locos.wav" WAVE
INDEX 01 00:00:00
 
Отчет CUETools
[CUETools log; Date: 15.07.2014 22:46:23; Version: 2.1.4]
[CTDB TOCID: f71qBnO4U6Firw.msW6mCcf4.2c-] disk not present in database.
[AccurateRip ID: 0007f06b-002abbbc-53081106] found.
Track [ CRC | V2 ] Status
01 [5625112b|3fe388a3] (0+0/2) No match
02 [b00790e5|24dc4e11] (0+0/2) No match
03 [889263a2|f80d84b1] (0+0/2) No match
04 [ecce4ee4|9b4e5845] (0+0/2) No match
05 [2d9b0993|5c41dfe7] (0+0/2) No match
06 [f135644a|b6c8dc79] (0+0/2) No match
Offsetted by -2391:
01 [0b64db3a] (0/2) No match (V2 was not tested)
02 [3b5a9977] (0/2) No match (V2 was not tested)
03 [249ab9a5] (0/2) No match (V2 was not tested)
04 [a79f690b] (0/2) No match (V2 was not tested)
05 [a7147143] (0/2) No match (V2 was not tested)
06 [405d8407] (0/2) No match (V2 was not tested)
Track Peak [ CRC32 ] [W/O NULL] [ LOG ]
-- 94,3 [1008A099] [00416D44]
01 88,7 [C8592177] [9223F100] CRC32
02 79,8 [BEBBD0E8] [0653A2A6] CRC32
03 94,3 [8D37296A] [4AC42FCC] CRC32
04 88,9 [94C19FA0] [F87475C4] CRC32
05 79,6 [081BC989] [1D00AAE4] CRC32
06 90,3 [531E096C] [F33307D7] CRC32
 
Review by John Bush
Eddie Palmieri's 1971 LP Vamonos Pa'l Monte moves easily from the nearly avant-garde trumpet-battle opener "Revolt/La Libertad Logico" into the new-era-meets-old "Caminando," complete with an excellent electric-piano solo by Palmieri himself. He also takes the lead on the seven-minute title-track jam, this time with organ (backed by brother Charlie), backed by a strong vocal chorus (Justo Betancourt, Santos Colon, Yayo el Indio) and the rugged timbales playing of Nick Marrero. Above and beyond the irresistible arrangements and intricate playing, Vamonos Pa'l Monte benefits from one of the best recording jobs of any early-'70s salsa record, each section -- and practically each musician -- vigorously separated with clear stereo. Though many fans consider it a transition record toward the compositional brilliance of The Sun of Latin Music, it's actually a much better record for fans of traditional salsa.
16:09
287
Нет комментариев. Ваш будет первым!