Поиск

(Latin Jazz) [CD] Eddie Palmieri & Cal Tjader - Bamboleate - 1967 (2007), FLAC (tracks+.cue), lossless

Треклист:
Eddie Palmieri & Cal Tjader - Bamboleate
Жанр: Latin Jazz
Носитель: CD
Страна-производитель диска: США
Год издания: 1967 (2007)
Издатель (лейбл): Fania Records
Номер по каталогу: 773 130 217-2
Аудиокодек: FLAC (*.flac)
Тип рипа: tracks+.cue
Битрейт аудио: lossless
Продолжительность: 33:20
Источник (релизер): Wolo (what)
Наличие сканов в содержимом раздачи: нет
Треклист:
01. Bamboleate (3:25)
02. We've Loved Before (2:30)
03. Resemblance (5:40)
04. Mi Montuno (5:23)
05. Samba do Sueno (3:53)
06. Guajira Candela (3:48)
07. Pancho's Seis por Ocho (5:38)
08. Come and Get It (3:03)
Состав:
Eddie Palmieri - piano
Cal Tjader - vibes
Bobby Rodriguez - bass
Barry Rogers, Mark Weinstein - trombones
Ismael Quintana - vocals
 
Лог создания рипа
Exact Audio Copy V1.0 beta 3 from 29. August 2011
EAC extraction logfile from 23. December 2011, 21:05
Eddie Palmieri & Cal Tjader / Bamboleate
Used drive : TSSTcorpCDDVDW TS-L633C Adapter: 2 ID: 0
Read mode : Secure
Utilize accurate stream : Yes
Defeat audio cache : Yes
Make use of C2 pointers : No
Read offset correction : 6
Overread into Lead-In and Lead-Out : No
Fill up missing offset samples with silence : Yes
Delete leading and trailing silent blocks : No
Null samples used in CRC calculations : Yes
Used interface : Native Win32 interface for Win NT & 2000
Gap handling : Appended to previous track
Used output format : User Defined Encoder
Selected bitrate : 128 kBit/s
Quality : High
Add ID3 tag : No
Command line compressor : C:\Program Files (x86)\Exact Audio Copy\Flac\flac.exe
Additional command line options : -8 -V -T "ARTIST=%artist%" -T "TITLE=%title%" -T "ALBUM=%albumtitle%" -T "DATE=%year%" -T "TRACKNUMBER=%tracknr%" -T "GENRE=%genre%" -T "PERFORMER=%albuminterpret%" -T "COMPOSER=%composer%" %haslyrics%--tag-from-file=LYRICS="%lyricsfile%"%haslyrics% -T "ALBUMARTIST=%albumartist%" -T "ALBUM ARTIST=%albumartist%" -T "DISCNUMBER=%cdnumber%" -T "TOTALDISCS=%totalcds%" -T "TOTALTRACKS=%numtracks%" -T "COMMENT=EAC V1.0 beta 2, Secure Mode, Test & Copy, AccurateRip, FLAC -8" %source% -o %dest%
TOC of the extracted CD
Track | Start | Length | Start sector | End sector
---------------------------------------------------------
1 | 0:00.00 | 3:25.33 | 0 | 15407
2 | 3:25.33 | 2:30.22 | 15408 | 26679
3 | 5:55.55 | 5:39.61 | 26680 | 52165
4 | 11:35.41 | 5:23.15 | 52166 | 76405
5 | 16:58.56 | 3:53.15 | 76406 | 93895
6 | 20:51.71 | 3:48.04 | 93896 | 110999
7 | 24:40.00 | 5:37.74 | 111000 | 136348
8 | 30:17.74 | 3:02.70 | 136349 | 150068
Track 1
Filename G:\EACRIPS\Eddie Palmieri & Cal Tjader - Bamboleate (1967) [FLAC]\01. Bamboleate.wav
Pre-gap length 0:00:02.00
Peak level 88.7 %
Extraction speed 1.2 X
Track quality 100.0 %
Test CRC AA82B45A
Copy CRC AA82B45A
Track not present in AccurateRip database
Copy OK
Track 2
Filename G:\EACRIPS\Eddie Palmieri & Cal Tjader - Bamboleate (1967) [FLAC]\02. We've Loved Before.wav
Pre-gap length 0:00:02.00
Peak level 84.4 %
Extraction speed 1.2 X
Track quality 100.0 %
Test CRC 3C1DDB48
Copy CRC 3C1DDB48
Track not present in AccurateRip database
Copy OK
Track 3
Filename G:\EACRIPS\Eddie Palmieri & Cal Tjader - Bamboleate (1967) [FLAC]\03. Resemblance.wav
Pre-gap length 0:00:02.00
Peak level 94.3 %
Extraction speed 1.5 X
Track quality 100.0 %
Test CRC CD23DE7F
Copy CRC CD23DE7F
Track not present in AccurateRip database
Copy OK
Track 4
Filename G:\EACRIPS\Eddie Palmieri & Cal Tjader - Bamboleate (1967) [FLAC]\04. Mi Montuno.wav
Pre-gap length 0:00:02.00
Peak level 90.4 %
Extraction speed 1.7 X
Track quality 100.0 %
Test CRC 9FFAAE70
Copy CRC 9FFAAE70
Track not present in AccurateRip database
Copy OK
Track 5
Filename G:\EACRIPS\Eddie Palmieri & Cal Tjader - Bamboleate (1967) [FLAC]\05. Samba Do Suenho.wav
Pre-gap length 0:00:02.00
Peak level 91.6 %
Extraction speed 1.7 X
Track quality 100.0 %
Test CRC 7EBA5DA6
Copy CRC 7EBA5DA6
Track not present in AccurateRip database
Copy OK
Track 6
Filename G:\EACRIPS\Eddie Palmieri & Cal Tjader - Bamboleate (1967) [FLAC]\06. Guajira Candela.wav
Pre-gap length 0:00:02.00
Peak level 85.7 %
Extraction speed 1.5 X
Track quality 99.9 %
Test CRC 69D1EE63
Copy CRC 69D1EE63
Track not present in AccurateRip database
Copy OK
Track 7
Filename G:\EACRIPS\Eddie Palmieri & Cal Tjader - Bamboleate (1967) [FLAC]\07. Pancho's Seis Por Ocho.wav
Pre-gap length 0:00:02.00
Peak level 96.1 %
Extraction speed 1.8 X
Track quality 99.9 %
Test CRC 1701523F
Copy CRC 1701523F
Track not present in AccurateRip database
Copy OK
Track 8
Filename G:\EACRIPS\Eddie Palmieri & Cal Tjader - Bamboleate (1967) [FLAC]\08. Come An' Get It.wav
Pre-gap length 0:00:02.00
Peak level 95.4 %
Extraction speed 1.6 X
Track quality 99.9 %
Test CRC B616ECC7
Copy CRC B616ECC7
Track not present in AccurateRip database
Copy OK
None of the tracks are present in the AccurateRip database
No errors occurred
End of status report
---- CUETools DB Plugin V2.1.3
[CTDB TOCID: FPrUJzZAVH_SkwJ7BoZzlcvJzag-] disk not present in database, Submit result: FPrUJzZAVH_SkwJ7BoZzlcvJzag- has been uploaded
==== Log checksum 4D569D8E6220680D826AC6016C93CF7AE7D08E65E1359B5D7CF239FACAF1BB52 ====
 
Содержание индексной карты (.CUE)
REM GENRE Jazz
REM DATE 1967
REM DISCID 6007D008
REM COMMENT "ExactAudioCopy v1.0b3"
PERFORMER "Eddie Palmieri & Cal Tjader"
TITLE "Bamboleate"
FILE "01 - Bamboleate.wav" WAVE
TRACK 01 AUDIO
TITLE "Bamboleate"
PERFORMER "Eddie Palmieri & Cal Tjader"
INDEX 01 00:00:00
TRACK 02 AUDIO
TITLE "We've Loved Before"
PERFORMER "Eddie Palmieri & Cal Tjader"
INDEX 00 03:23:33
FILE "02 - We've Loved Before.wav" WAVE
INDEX 01 00:00:00
TRACK 03 AUDIO
TITLE "Resemblance"
PERFORMER "Eddie Palmieri & Cal Tjader"
INDEX 00 02:28:22
FILE "03 - Resemblance.wav" WAVE
INDEX 01 00:00:00
TRACK 04 AUDIO
TITLE "Mi Montuno"
PERFORMER "Eddie Palmieri & Cal Tjader"
INDEX 00 05:37:61
FILE "04 - Mi Montuno.wav" WAVE
INDEX 01 00:00:00
TRACK 05 AUDIO
TITLE "Samba do Sueno"
PERFORMER "Eddie Palmieri & Cal Tjader"
INDEX 00 05:21:15
FILE "05 - Samba do Sueno.wav" WAVE
INDEX 01 00:00:00
TRACK 06 AUDIO
TITLE "Guajira Candela"
PERFORMER "Eddie Palmieri & Cal Tjader"
INDEX 00 03:51:15
FILE "06 - Guajira Candela.wav" WAVE
INDEX 01 00:00:00
TRACK 07 AUDIO
TITLE "Pancho's Seis por Ocho"
PERFORMER "Eddie Palmieri & Cal Tjader"
INDEX 00 03:46:04
FILE "07 - Pancho's Seis por Ocho.wav" WAVE
INDEX 01 00:00:00
TRACK 08 AUDIO
TITLE "Come and Get It"
PERFORMER "Eddie Palmieri & Cal Tjader"
INDEX 00 05:35:74
FILE "08 - Come and Get It.wav" WAVE
INDEX 01 00:00:00
 
Отчет CUETools
[CUETools log; Date: 15.07.2014 22:27:47; Version: 2.1.4]
[CTDB TOCID: FPrUJzZAVH_SkwJ7BoZzlcvJzag-] found.
Track | CTDB Status
1 | (1/1) Accurately ripped
2 | (1/1) Accurately ripped
3 | (1/1) Accurately ripped
4 | (1/1) Accurately ripped
5 | (1/1) Accurately ripped
6 | (1/1) Accurately ripped
7 | (1/1) Accurately ripped
8 | (1/1) Accurately ripped
[AccurateRip ID: 000a19d6-0044690c-6007d008] disk not present in database.
Track Peak [ CRC32 ] [W/O NULL] [ LOG ]
-- 96,1 [A3A9704E] [1FC1B8BE]
01 88,7 [AA82B45A] [9B9C44FC] CRC32
02 84,4 [3C1DDB48] [028631B9] CRC32
03 94,3 [CD23DE7F] [0DC12C22] CRC32
04 90,4 [9FFAAE70] [A774FFD8] CRC32
05 91,6 [7EBA5DA6] [9A4378EF] CRC32
06 85,7 [69D1EE63] [1228F4FF] CRC32
07 96,1 [1701523F] [89325BA2] CRC32
08 95,4 [B616ECC7] [C52233D8] CRC32
 
Review by Tony Wilds
The second album pairing Palmieri and Tjader, Bamboleate moves beyond El Sonido Nuevo into the respective territories of each artist. "Bamboleate" is the Latin cooker ones expects from Palmieri but did not find on the more subdued El Sonido Nuevo. "Semejanza" is an equally affecting jazz lilt led by Tjader. Framed by a melody that could have come straight off the Vince Guaraldi Trio's Charlie Brown Christmas album, it has an equally indelible, locomotive rhythm. Tjader's samba, "Samba De Los Suenho," is a welcome departure from the relative rigidity of El Sonido Nuevo. Also vital are the vocal tracks (Palmieri's); the blatant channel-switching in "Guajira Candela" is an abuse of stereo separation, however. (Use a second voice or instrument for that.)
"Pancho's Seis Por Ocho" is typical of the deep, mid-tempo, Afro rhythm of Bamboleate and El Sonido Nuevo. Trombonist Mark Weinstein contributes the closing "Ven Y Recibelo (Come an' Get It)," a mod/soul cooker on a par with the best of Verve all-stars Tjader, Ogerman, Winding, and Schifrin. Finally, the album was reissued in 1977 as Tico LPS-88806 and distributed by Fania; the reissue at least features illustrations of Tjader and Palmieri by Jose Vargas.
16:09
291
Нет комментариев. Ваш будет первым!