Поиск

(Latin Jazz) [CD] Eddie Palmieri - Live at the University of Puerto Rico - 1971 (1999), FLAC (tracks+.cue), lossless

(Latin Jazz) [CD] Eddie Palmieri - Live at the University of Puerto Rico - 1971 (1999), FLAC (tracks+.cue), lossless
Треклист:
Eddie Palmieri - Live at the University of Puerto Rico
Жанр: Latin Jazz
Носитель: CD
Страна-производитель диска: Испания
Год издания: 1971 (1999)
Издатель (лейбл): Musical Productions
Номер по каталогу: C40 4003
Аудиокодек: FLAC (*.flac)
Тип рипа: tracks+.cue
Битрейт аудио: lossless
Продолжительность: 57:38
Источник (релизер): loomz (what)
Наличие сканов в содержимом раздачи: нет
Треклист:
01. Vamonos Pa'l Monte (3:51)
02. Pa' Huele (3:46)
03. Muneca (10:33)
04. The Mod Scene (10:24)
05. Bilongo (6:37)
06. Chocolate Ice Cream (6:56)
07. La Malanga (4:32)
08. Amor Ciego (3:57)
09. La Libertad Logica (5:32)
10. Camagueyanos y Habaneros (1:30)
 
Лог создания рипа
X Lossless Decoder version 20110611 (135.0)
XLD extraction logfile from 2011-06-18 20:51:36 -0400
Eddie Palmieri & Friends / At the University of Puerto Rico
Used drive : MATSHITA DVD-R UJ-857E (revision ZB0E)
Ripper mode : XLD Secure Ripper
Disable audio cache : OK for the drive with a cache less than 1375KiB
Make use of C2 pointers : NO
Read offset correction : 102
Max retry count : 100
Gap status : Analyzed, Appended
TOC of the extracted CD
Track | Start | Length | Start sector | End sector
---------------------------------------------------------
1 | 00:00:32 | 03:50:40 | 32 | 17321
2 | 03:50:72 | 03:45:50 | 17322 | 34246
3 | 07:36:47 | 10:33:20 | 34247 | 81741
4 | 18:09:67 | 10:24:28 | 81742 | 128569
5 | 28:34:20 | 06:37:30 | 128570 | 158374
6 | 35:11:50 | 06:56:00 | 158375 | 189574
7 | 42:07:50 | 04:31:52 | 189575 | 209951
8 | 46:39:27 | 03:56:63 | 209952 | 227714
9 | 50:36:15 | 05:32:17 | 227715 | 252631
10 | 56:08:32 | 01:30:10 | 252632 | 259391
List of alternate offset correction values
# | Absolute | Relative | Confidence
------------------------------------------
1 | 108 | 6 | 1
AccurateRip Summary
Track 01 : Not Found
Track 02 : Not Found
Track 03 : Not Found
Track 04 : OK (confidence 1, with different offset)
Track 05 : Not Found
Track 06 : Not Found
Track 07 : Not Found
Track 08 : OK (confidence 1, with different offset)
Track 09 : Not Found
Track 10 : Not Found
->2 track(s) accurately ripped, 0 track(s) not, 8 track(s) not found
All Tracks
Album gain : -3.53 dB
Peak : 1.000000
Statistics
Read error : 0
Jitter error (maybe fixed) : 0
Retry sector count : 0
Damaged sector count : 0
Track 01
Filename : /Music/Eddie Palmieri & Friends - At the University of Puerto Rico (1971) [FLAC]/01 Vaminos Pal' Monte.flac
Pre-gap length : 00:02:32
Track gain : -3.04 dB
Peak : 1.000000
CRC32 hash (test run) : 5E35E4BC
CRC32 hash : 5E35E4BC
CRC32 hash (skip zero) : 24F08C12
AccurateRip signature : BD1233D5
->Track not present in AccurateRip database.
Statistics
Read error : 0
Jitter error (maybe fixed) : 0
Retry sector count : 0
Damaged sector count : 0
Track 02
Filename : /Music/Eddie Palmieri & Friends - At the University of Puerto Rico (1971) [FLAC]/02 Dame Un Cachito Pa' Huele.flac
Pre-gap length : 00:01:70
Track gain : -5.20 dB
Peak : 1.000000
CRC32 hash (test run) : C58E1057
CRC32 hash : C58E1057
CRC32 hash (skip zero) : CDDB29E5
AccurateRip signature : D5F70FBD
->Track not present in AccurateRip database.
Statistics
Read error : 0
Jitter error (maybe fixed) : 0
Retry sector count : 0
Damaged sector count : 0
Track 03
Filename : /Music/Eddie Palmieri & Friends - At the University of Puerto Rico (1971) [FLAC]/03 Muñeca.flac
Pre-gap length : 00:01:72
Track gain : -4.44 dB
Peak : 0.977234
CRC32 hash (test run) : C269117B
CRC32 hash : C269117B
CRC32 hash (skip zero) : 8E19E9D2
AccurateRip signature : 01C5B52E
->Track not present in AccurateRip database.
Statistics
Read error : 0
Jitter error (maybe fixed) : 0
Retry sector count : 0
Damaged sector count : 0
Track 04
Filename : /Music/Eddie Palmieri & Friends - At the University of Puerto Rico (1971) [FLAC]/04 The Mod Scene.flac
Track gain : -2.87 dB
Peak : 0.999969
CRC32 hash (test run) : 90FE1628
CRC32 hash : 90FE1628
CRC32 hash (skip zero) : C937422B
AccurateRip signature : A4E18216
->Accurately ripped! (confidence 1)
(matched with the different offset correction value;
calculated using an additional offset of 6;
the signature after correction is: AD7059EB)
Statistics
Read error : 0
Jitter error (maybe fixed) : 0
Retry sector count : 0
Damaged sector count : 0
Track 05
Filename : /Music/Eddie Palmieri & Friends - At the University of Puerto Rico (1971) [FLAC]/05 Bilongo.flac
Pre-gap length : 00:01:65
Track gain : -3.10 dB
Peak : 0.977203
CRC32 hash (test run) : 450FC74F
CRC32 hash : 450FC74F
CRC32 hash (skip zero) : 643CBFB8
AccurateRip signature : 35411C07
->Track not present in AccurateRip database.
Statistics
Read error : 0
Jitter error (maybe fixed) : 0
Retry sector count : 0
Damaged sector count : 0
Track 06
Filename : /Music/Eddie Palmieri & Friends - At the University of Puerto Rico (1971) [FLAC]/06 Chocolate Ice Cream.flac
Track gain : -1.66 dB
Peak : 0.946014
CRC32 hash (test run) : 4872559A
CRC32 hash : 4872559A
CRC32 hash (skip zero) : 7C679584
AccurateRip signature : 5AEA6EE2
->Track not present in AccurateRip database.
Statistics
Read error : 0
Jitter error (maybe fixed) : 0
Retry sector count : 0
Damaged sector count : 0
Track 07
Filename : /Music/Eddie Palmieri & Friends - At the University of Puerto Rico (1971) [FLAC]/07 La Malanga.flac
Pre-gap length : 00:02:00
Track gain : -4.04 dB
Peak : 0.954956
CRC32 hash (test run) : 54B36E0A
CRC32 hash : 54B36E0A
CRC32 hash (skip zero) : 0CC36A5A
AccurateRip signature : AE87D696
->Track not present in AccurateRip database.
Statistics
Read error : 0
Jitter error (maybe fixed) : 0
Retry sector count : 0
Damaged sector count : 0
Track 08
Filename : /Music/Eddie Palmieri & Friends - At the University of Puerto Rico (1971) [FLAC]/08 Amor Ciego.flac
Track gain : -1.82 dB
Peak : 0.804871
CRC32 hash (test run) : 7B230317
CRC32 hash : 7B230317
CRC32 hash (skip zero) : ED41C651
AccurateRip signature : 2B8B4DEF
->Accurately ripped! (confidence 1)
(matched with the different offset correction value;
calculated using an additional offset of 6;
the signature after correction is: 354C15AC)
Statistics
Read error : 0
Jitter error (maybe fixed) : 0
Retry sector count : 0
Damaged sector count : 0
Track 09
Filename : /Music/Eddie Palmieri & Friends - At the University of Puerto Rico (1971) [FLAC]/09 La Libertad Logica.flac
Track gain : -3.43 dB
Peak : 0.977203
CRC32 hash (test run) : 2A80077B
CRC32 hash : 2A80077B
CRC32 hash (skip zero) : B6ABC89A
AccurateRip signature : 73598154
->Track not present in AccurateRip database.
Statistics
Read error : 0
Jitter error (maybe fixed) : 0
Retry sector count : 0
Damaged sector count : 0
Track 10
Filename : /Music/Eddie Palmieri & Friends - At the University of Puerto Rico (1971) [FLAC]/10 Camagueyanos y Habaneros.flac
Track gain : -3.02 dB
Peak : 0.916779
CRC32 hash (test run) : D0888B31
CRC32 hash : D0888B31
CRC32 hash (skip zero) : 6601E318
AccurateRip signature : 13D1D48A
->Track not present in AccurateRip database.
Statistics
Read error : 0
Jitter error (maybe fixed) : 0
Retry sector count : 0
Damaged sector count : 0
No errors occurred
End of status report
 
Содержание индексной карты (.CUE)
TITLE "At the University of Puerto Rico"
PERFORMER "Eddie Palmieri"
REM GENRE "Jazz"
REM DATE "1971"
REM DISCID 730D820A
FILE "01 - Vamonos Pa'l Monte.wav" WAVE
TRACK 01 AUDIO
TITLE "Vamonos Pa'l Monte"
INDEX 00 00:00:00
INDEX 01 00:00:32
TRACK 02 AUDIO
TITLE "Pa' Huele"
INDEX 00 03:49:02
FILE "02 - Pa' Huele.wav" WAVE
INDEX 01 00:00:00
TRACK 03 AUDIO
TITLE "Muneca"
INDEX 00 03:43:53
FILE "03 - Muneca.wav" WAVE
INDEX 01 00:00:00
FILE "04 - The Mod Scene.wav" WAVE
TRACK 04 AUDIO
TITLE "The Mod Scene"
INDEX 01 00:00:00
TRACK 05 AUDIO
TITLE "Bilongo"
INDEX 00 10:22:38
FILE "05 - Bilongo.wav" WAVE
INDEX 01 00:00:00
FILE "06 - Chocolate Ice Cream.wav" WAVE
TRACK 06 AUDIO
TITLE "Chocolate Ice Cream"
INDEX 01 00:00:00
TRACK 07 AUDIO
TITLE "La Malanga"
INDEX 00 06:54:00
FILE "07 - La Malanga.wav" WAVE
INDEX 01 00:00:00
FILE "08 - Amor Ciego.wav" WAVE
TRACK 08 AUDIO
TITLE "Amor Ciego"
INDEX 01 00:00:00
FILE "09 - La Libertad Logica.wav" WAVE
TRACK 09 AUDIO
TITLE "La Libertad Logica"
INDEX 01 00:00:00
FILE "10 - Camagueyanos y Habaneros.wav" WAVE
TRACK 10 AUDIO
TITLE "Camagueyanos y Habaneros"
INDEX 01 00:00:00
 
Отчет CUETools
[CUETools log; Date: 15.07.2014 23:24:24; Version: 2.1.4]
Pregap length 00:00:32.
[CTDB TOCID: 8ogwX4cE3FmkBG_l4u0JYd6DBRU-] disk not present in database.
[AccurateRip ID: 0017cc02-00bea189-730d820a] found.
Track [ CRC | V2 ] Status
01 [bd1233d5|3deafeae] (0+1/4) Accurately ripped
02 [d5f70fbd|54fdd6f6] (0+1/4) Accurately ripped
03 [01c5b52e|9d8b64f7] (0+1/4) Accurately ripped
04 [a4e18216|3a34d812] (0+1/3) Accurately ripped
05 [35411c07|0bacc668] (0+1/4) Accurately ripped
06 [5aea6ee2|c4158ec1] (0+1/4) Accurately ripped
07 [ae87d696|10d88480] (0+1/4) Accurately ripped
08 [2b8b4def|c68bab6c] (0+1/3) Accurately ripped
09 [73598154|516d5a21] (0+1/4) Accurately ripped
10 [13d1d48a|3e63cade] (0+1/4) Accurately ripped
Offsetted by 6:
01 [2913b718] (1/4) Accurately ripped
02 [3a551c9b] (1/4) Accurately ripped
03 [b1653e8b] (1/4) Accurately ripped
04 [ad7059eb] (1/3) Accurately ripped
05 [75d0f37e] (1/4) Accurately ripped
06 [3cfddd4d] (1/4) Accurately ripped
07 [c32e7ac6] (1/4) Accurately ripped
08 [354c15ac] (1/3) Accurately ripped
09 [840faf66] (1/4) Accurately ripped
10 [e105cb9e] (0/4) No match
Offsetted by 675:
01 [70645d84] (1/4) Accurately ripped
02 [714bb74c] (1/4) Accurately ripped
03 [6fc96759] (1/4) Accurately ripped
04 [9687cd16] (0/3) No match
05 [22c03e02] (1/4) Accurately ripped
06 [ebf0309e] (1/4) Accurately ripped
07 [4f200f1a] (1/4) Accurately ripped
08 [5fa7a614] (0/3) No match
09 [837c5967] (1/4) Accurately ripped
10 [799f8aa2] (1/4) Accurately ripped
Track Peak [ CRC32 ] [W/O NULL]
-- 100,0 [B04B973E] [C71FF3A3]
01 100,0 [5E35E4BC] [24F08C12]
02 100,0 [C58E1057] [CDDB29E5]
03 97,7 [C269117B] [8E19E9D2]
04 100,0 [90FE1628] [C937422B]
05 97,7 [450FC74F] [643CBFB8]
06 94,6 [4872559A] [7C679584]
07 95,4 [54B36E0A] [0CC36A5A]
08 80,4 [7B230317] [ED41C651]
09 97,7 [2A80077B] [B6ABC89A]
10 91,6 [D0888B31] [6601E318]
 
Об альбоме (сборнике)
Masterful performance at a major boiling point of Puerto Rico.
For those not familiar, the University of Puerto Rico has historically been a starting point of political struggle on the island of Puerto Rico. That is why I believe that the fact that Palmieri chose this place to give a concert says a lot about the man, especially since he has his own rebellious side. As for the music, students were given a tremendous, once in a lifetime spectacle. La Libertad Logica really hit a sweetspot with its heavy, fully charged sound. Muñeca was absolutely monumental, delighting the audience for just over 10 minutes of a clinic put on by all: Palmieri, Quintana and the rest of the band. "The Mod Scene" slows the pace down a bit, this time with a 10 minute jazz session that is hard not to enjoy and as very special plus, has his brother Charlie as a guest performer.
As for the sound quality of the album, I will admit it is not as great as you would want, but as student at the very same place this album was recorded, I know for sure that the location is not the ideal place to record. It was recorded outdoors, right in front a very hollow lobby, in addition to the fact that this was in 1971, when sound technology wasn't as nearly as good as we are used. I think the sound quality is good enough given these facts.
The album is extremely good in my opinion, and anyone who likes Palmieri's music must have this in their collection.
-- By Gabriel Cortes Hernandez
15:11
232
Нет комментариев. Ваш будет первым!