Поиск

(Latin Jazz) Cal Tjader - Cuban Fantasy (1977) - 2003, FLAC (tracks+.cue), lossless

(Latin Jazz) Cal Tjader - Cuban Fantasy (1977) - 2003, FLAC (tracks+.cue), lossless
Треклист:
Cal Tjader – Cuban Fantasy (1977)
Жанр: Latin Jazz
Год издания диска: 2003
Издатель (лейбл): Fantasy
Номер по каталогу: FCD 2477-2
Аудиокодек: FLAC (*.flac)
Тип рипа: tracks+.cue
Битрейт аудио: lossless
Продолжительность: 74:41
Источник: вата
Сканов
Треклист:
01. Cuban Fantasy (6:41)
02. Guarabe (11:10)
03. Tamanco No Samba (Samba Blim) (12:14)
04. Tu Crees Que? (5:55)
05. Silenciosa (7:28)
06. Descarga Cachao (10:26)
07. Manuel Deeghit (13:16)
08. Guachi Guara (7:32)
Prsonnel:
Cal Tjader - vib, tim
Clare Fischer - el-p
Bob Redfield - g
Rob Fischer - b
Pete Riso - d
Poncho Sanchez - perc, cga
Rec.: live at The Great American Music Hall, San Francisco, CA, June 17 & 18, 1977.
 
 
Лог создания рипа
Exact Audio Copy V1.0 beta 3 from 29. August 2011
EAC extraction logfile from 5. November 2011, 19:06
Cal Tjader / Cuban Fantasy
Used drive : TSSTcorpCDDVDW TS-L633C Adapter: 2 ID: 0
Read mode : Secure
Utilize accurate stream : Yes
Defeat audio cache : Yes
Make use of C2 pointers : No
Read offset correction : 6
Overread into Lead-In and Lead-Out : No
Fill up missing offset samples with silence : Yes
Delete leading and trailing silent blocks : No
Null samples used in CRC calculations : Yes
Used interface : Native Win32 interface for Win NT & 2000
Gap handling : Appended to previous track
Used output format : User Defined Encoder
Selected bitrate : 128 kBit/s
Quality : High
Add ID3 tag : No
Command line compressor : C:\Program Files (x86)\Exact Audio Copy\Flac\flac.exe
Additional command line options : -8 -V -T "ARTIST=%artist%" -T "TITLE=%title%" -T "ALBUM=%albumtitle%" -T "DATE=%year%" -T "TRACKNUMBER=%tracknr%" -T "GENRE=%genre%" -T "PERFORMER=%albuminterpret%" -T "COMPOSER=%composer%" %haslyrics%--tag-from-file=LYRICS="%lyricsfile%"%haslyrics% -T "ALBUMARTIST=%albumartist%" -T "ALBUM ARTIST=%albumartist%" -T "DISCNUMBER=%cdnumber%" -T "TOTALDISCS=%totalcds%" -T "TOTALTRACKS=%numtracks%" -T "COMMENT=EAC V1.0 beta 2, Secure Mode, Test & Copy, AccurateRip, FLAC -8" %source% -o %dest%
TOC of the extracted CD
Track | Start | Length | Start sector | End sector
---------------------------------------------------------
1 | 0:00.00 | 6:40.38 | 0 | 30037
2 | 6:40.38 | 11:10.10 | 30038 | 80297
3 | 17:50.48 | 12:13.60 | 80298 | 135332
4 | 30:04.33 | 5:54.62 | 135333 | 161944
5 | 35:59.20 | 7:27.40 | 161945 | 195509
6 | 43:26.60 | 10:25.43 | 195510 | 242427
7 | 53:52.28 | 13:16.32 | 242428 | 302159
8 | 67:08.60 | 7:31.58 | 302160 | 336042
Track 1
Filename G:\EACRIPS\Cal Tjader - Cuban Fantasy (2003) [FLAC]\01. Cuban Fantasy.wav
Pre-gap length 0:00:02.00
Peak level 97.5 %
Extraction speed 2.7 X
Track quality 100.0 %
Test CRC EE043170
Copy CRC EE043170
Accurately ripped (confidence 2) [1845FE5E] (AR v1)
Copy OK
Track 2
Filename G:\EACRIPS\Cal Tjader - Cuban Fantasy (2003) [FLAC]\02. Guarabe.wav
Peak level 96.5 %
Extraction speed 3.2 X
Track quality 100.0 %
Test CRC 20E5D896
Copy CRC 20E5D896
Accurately ripped (confidence 2) [BB2E6EE0] (AR v1)
Copy OK
Track 3
Filename G:\EACRIPS\Cal Tjader - Cuban Fantasy (2003) [FLAC]\03. Tamanco No Samba (Samba Blim).wav
Peak level 97.1 %
Extraction speed 3.8 X
Track quality 100.0 %
Test CRC D74628F6
Copy CRC D74628F6
Accurately ripped (confidence 2) [8A0ADBBF] (AR v1)
Copy OK
Track 4
Filename G:\EACRIPS\Cal Tjader - Cuban Fantasy (2003) [FLAC]\04. Tu Crees Que.wav
Peak level 93.6 %
Extraction speed 3.9 X
Track quality 100.0 %
Test CRC A03B6DC2
Copy CRC A03B6DC2
Accurately ripped (confidence 2) [A9E8C250] (AR v1)
Copy OK
Track 5
Filename G:\EACRIPS\Cal Tjader - Cuban Fantasy (2003) [FLAC]\05. Silenciosa.wav
Pre-gap length 0:00:01.09
Peak level 94.7 %
Extraction speed 3.7 X
Track quality 99.9 %
Test CRC 4AD3C935
Copy CRC 4AD3C935
Accurately ripped (confidence 2) [4EF01657] (AR v1)
Copy OK
Track 6
Filename G:\EACRIPS\Cal Tjader - Cuban Fantasy (2003) [FLAC]\06. Descarga Cachao.wav
Peak level 95.8 %
Extraction speed 4.6 X
Track quality 100.0 %
Test CRC 0E22C14C
Copy CRC 0E22C14C
Accurately ripped (confidence 2) [9652D2EE] (AR v1)
Copy OK
Track 7
Filename G:\EACRIPS\Cal Tjader - Cuban Fantasy (2003) [FLAC]\07. Manuel Deeghit.wav
Pre-gap length 0:00:01.04
Peak level 93.6 %
Extraction speed 5.0 X
Track quality 100.0 %
Test CRC 981FC38A
Copy CRC 981FC38A
Accurately ripped (confidence 2) [078B71E5] (AR v1)
Copy OK
Track 8
Filename G:\EACRIPS\Cal Tjader - Cuban Fantasy (2003) [FLAC]\08. Guachi Guara.wav
Pre-gap length 0:00:01.13
Peak level 96.2 %
Extraction speed 5.0 X
Track quality 100.0 %
Test CRC B559465A
Copy CRC B559465A
Accurately ripped (confidence 2) [406C77EF] (AR v1)
Copy OK
All tracks accurately ripped
No errors occurred
End of status report
---- CUETools DB Plugin V2.1.3
[CTDB TOCID: CbQ3yB6sfD4JYyytuhLRmIdnmmk-] disk not present in database, Submit result: CbQ3yB6sfD4JYyytuhLRmIdnmmk- has been uploaded
==== Log checksum B2B2ABE012B14B29B0B76F57A8594240BFA317A44F15EF6FEF32EADE00B7B885 ====
 
Содержание индексной карты (.CUE)
REM GENRE Jazz
REM DATE 1977
REM DISCID 4E118008
REM COMMENT "ExactAudioCopy v1.0b3"
PERFORMER "Cal Tjader"
TITLE "Cuban Fantasy"
FILE "01. Cuban Fantasy.flac" WAVE
TRACK 01 AUDIO
TITLE "Cuban Fantasy"
PERFORMER "Cal Tjader"
ISRC H2=S50300088
INDEX 01 00:00:00
FILE "02. Guarabe.flac" WAVE
TRACK 02 AUDIO
TITLE "Guarabe"
PERFORMER "Cal Tjader"
ISRC H2=S50300089
INDEX 01 00:00:00
FILE "03. Tamanco No Samba (Samba Blim).flac" WAVE
TRACK 03 AUDIO
TITLE "Tamanco No Samba (Samba Blim)"
PERFORMER "Cal Tjader"
ISRC H2=S50300090
INDEX 01 00:00:00
FILE "04. Tu Crees Que.flac" WAVE
TRACK 04 AUDIO
TITLE "Tu Crees Que?"
PERFORMER "Cal Tjader"
ISRC H2=S50300091
INDEX 01 00:00:00
TRACK 05 AUDIO
TITLE "Silenciosa"
PERFORMER "Cal Tjader"
ISRC H2=S50300092
INDEX 00 05:53:55
FILE "05. Silenciosa.flac" WAVE
INDEX 01 00:00:00
FILE "06. Descarga Cachao.flac" WAVE
TRACK 06 AUDIO
TITLE "Descarga Cachao"
PERFORMER "Cal Tjader"
ISRC H2=S50300093
INDEX 01 00:00:00
TRACK 07 AUDIO
TITLE "Manuel Deeghit"
PERFORMER "Cal Tjader"
ISRC H2=S50300094
INDEX 00 10:24:40
FILE "07. Manuel Deeghit.flac" WAVE
INDEX 01 00:00:00
TRACK 08 AUDIO
TITLE "Guachi Guara"
PERFORMER "Cal Tjader"
ISRC H2=S50300095
INDEX 00 13:15:22
FILE "08. Guachi Guara.flac" WAVE
INDEX 01 00:00:00
 
Об альбоме (сборнике)
Cuban Fantasy consists of previously unissued selections from two 1977 concerts by Cal Tjader at the Great American Music Hall in San Francisco, though this is anything but an example of clearing out tape vaults simply to issue new product. Joined by pianist Clare Fischer, conga player Poncho Sanchez, guitarist Bob Redfield, bassist Rob Fisher, and drummer Pete Riso, Tjader energizes the crowd with his interpretation of Ray Bryant's infectious "Cuban Fantasy," switching over from vibes to timbales to build it to an exciting climax. Fisher contributed the subtle "Guarabe," while the engaging arrangement of Mongo Santamaria's "Tu Crees Que?" would have had the audience on their feet dancing had this been recorded outdoors. This is one of Cal Tjader's best groups, and it is a shame that this music remained hidden for a quarter century.
~ Ken Dryden
 
02:44
376
Нет комментариев. Ваш будет первым!