Поиск

(Latin Jazz) Cal Tjader - Black Orchid - 1993, FLAC (tracks+.cue), lossless

(Latin Jazz) Cal Tjader - Black Orchid - 1993, FLAC (tracks+.cue), lossless
Треклист:
Cal Tjader – Black Orchid
Жанр: Latin Jazz
Год издания диска: 1993
Издатель (лейбл): Fantasy
Номер по каталогу: FCD-24730-2
Аудиокодек: FLAC (*.flac)
Тип рипа: tracks+.cue
Битрейт аудио: lossless
Продолжительность: 76:02
Источник (релизер): вата
Сканов:
Треклист:
01. Mi China (2:20)
02. Close Your Eyes (3:15)
03. Mambo At The 'M' (4:43)
04. Contigo (2:42)
05. Bonita (2:31)
06. The Lady Is A Tramp (4:35)
07. Black Orchid (3:27)
08. Happiness Is A Thing Called Joe (3:47)
09. I've Waited So Long (2:11)
10. Out Of Nowhere (3:29)
11. Guajira At The Blackhawk (5:24)
12. I Want To Be Happy (3:22)
13. The Nearness Of You (3:58)
14. Pete Kelly's Blues (3:52)
15. A Minor Goof (3:56)
16. Undecided (3:23)
17. Philadelphia Mambo (3:24)
18. Flamingo (4:15)
19. Stompin' At The Savoy (4:04)
20. Laura (3:23)
21. Lullaby Of Birdland (4:02)
 
 
Лог создания рипа
Exact Audio Copy V1.0 beta 3 from 29. August 2011
EAC extraction logfile from 21. October 2011, 15:19
Cal Tjader / Black Orchid
Used drive : MATSHITADVD-RAM UJ890AS Adapter: 0 ID: 1
Read mode : Secure
Utilize accurate stream : Yes
Defeat audio cache : Yes
Make use of C2 pointers : No
Read offset correction : 102
Overread into Lead-In and Lead-Out : No
Fill up missing offset samples with silence : Yes
Delete leading and trailing silent blocks : No
Null samples used in CRC calculations : Yes
Used interface : Native Win32 interface for Win NT & 2000
Gap handling : Appended to previous track
Used output format : User Defined Encoder
Selected bitrate : 1024 kBit/s
Quality : High
Add ID3 tag : No
Command line compressor : C:\Program Files (x86)\Exact Audio Copy\Flac\flac.exe
Additional command line options : -8 -V -T "ARTIST=%artist%" -T "TITLE=%title%" -T "ALBUM=%albumtitle%" -T "DATE=%year%" -T "TRACKNUMBER=%tracknr%" -T "GENRE=%genre%" -T "PERFORMER=%albuminterpret%" -T "COMPOSER=%composer%" %haslyrics%--tag-from-file=LYRICS="%lyricsfile%"%haslyrics% -T "ALBUMARTIST=%albumartist%" -T "ALBUM ARTIST=%albumartist%" -T "DISCNUMBER=%cdnumber%" -T "TOTALDISCS=%totalcds%" -T "TOTALTRACKS=%numtracks%" -T "COMMENT=%comment%" %source% -o %dest%
TOC of the extracted CD
Track | Start | Length | Start sector | End sector
---------------------------------------------------------
1 | 0:00.00 | 2:19.57 | 0 | 10481
2 | 2:19.57 | 3:14.53 | 10482 | 25084
3 | 5:34.35 | 4:43.00 | 25085 | 46309
4 | 10:17.35 | 2:42.27 | 46310 | 58486
5 | 12:59.62 | 2:31.15 | 58487 | 69826
6 | 15:31.02 | 4:34.45 | 69827 | 90421
7 | 20:05.47 | 3:27.25 | 90422 | 105971
8 | 23:32.72 | 3:47.28 | 105972 | 123024
9 | 27:20.25 | 2:11.20 | 123025 | 132869
10 | 29:31.45 | 3:29.12 | 132870 | 148556
11 | 33:00.57 | 5:23.40 | 148557 | 172821
12 | 38:24.22 | 3:21.40 | 172822 | 187936
13 | 41:45.62 | 3:57.48 | 187937 | 205759
14 | 45:43.35 | 3:51.52 | 205760 | 223136
15 | 49:35.12 | 3:55.55 | 223137 | 240816
16 | 53:30.67 | 3:23.25 | 240817 | 256066
17 | 56:54.17 | 3:24.18 | 256067 | 271384
18 | 60:18.35 | 4:15.32 | 271385 | 290541
19 | 64:33.67 | 4:03.45 | 290542 | 308811
20 | 68:37.37 | 3:22.40 | 308812 | 324001
21 | 72:00.02 | 4:01.55 | 324002 | 342131
Track 1
Filename D:\EAC\Cal Tjader - Black Orchid (1993) [FLAC]\01 - Mi China.wav
Pre-gap length 0:00:02.00
Peak level 68.5 %
Extraction speed 1.1 X
Track quality 99.9 %
Test CRC 2F6E2912
Copy CRC 2F6E2912
Accurately ripped (confidence 4) [19E09FCB] (AR v1)
Copy OK
Track 2
Filename D:\EAC\Cal Tjader - Black Orchid (1993) [FLAC]\02 - Close Your Eyes.wav
Pre-gap length 0:00:03.66
Peak level 76.4 %
Extraction speed 1.5 X
Track quality 100.0 %
Test CRC 06D6B0C7
Copy CRC 06D6B0C7
Accurately ripped (confidence 4) [8194505A] (AR v1)
Copy OK
Track 3
Filename D:\EAC\Cal Tjader - Black Orchid (1993) [FLAC]\03 - Mambo at the ''M''.wav
Pre-gap length 0:00:03.66
Peak level 84.4 %
Extraction speed 1.8 X
Track quality 100.0 %
Test CRC DAE72070
Copy CRC DAE72070
Accurately ripped (confidence 4) [CBA390B5] (AR v1)
Copy OK
Track 4
Filename D:\EAC\Cal Tjader - Black Orchid (1993) [FLAC]\04 - Contigo.wav
Pre-gap length 0:00:03.64
Peak level 66.5 %
Extraction speed 1.4 X
Track quality 99.9 %
Test CRC A1279BD3
Copy CRC A1279BD3
Accurately ripped (confidence 4) [E2D9F174] (AR v1)
Copy OK
Track 5
Filename D:\EAC\Cal Tjader - Black Orchid (1993) [FLAC]\05 - Bonita.wav
Pre-gap length 0:00:03.40
Peak level 67.1 %
Extraction speed 1.8 X
Track quality 100.0 %
Test CRC 8246AAB3
Copy CRC 8246AAB3
Accurately ripped (confidence 4) [F2D3E99C] (AR v1)
Copy OK
Track 6
Filename D:\EAC\Cal Tjader - Black Orchid (1993) [FLAC]\06 - The Lady Is a Tramp.wav
Pre-gap length 0:00:03.82
Peak level 74.6 %
Extraction speed 2.1 X
Track quality 100.0 %
Test CRC 7AA4B13B
Copy CRC 7AA4B13B
Accurately ripped (confidence 4) [E52434D6] (AR v1)
Copy OK
Track 7
Filename D:\EAC\Cal Tjader - Black Orchid (1993) [FLAC]\07 - Black Orchid.wav
Pre-gap length 0:00:02.69
Peak level 73.5 %
Extraction speed 2.1 X
Track quality 100.0 %
Test CRC E0E94362
Copy CRC E0E94362
Accurately ripped (confidence 3) [9CC8C3D6] (AR v1)
Copy OK
Track 8
Filename D:\EAC\Cal Tjader - Black Orchid (1993) [FLAC]\08 - Happiness Is a Thing Called Joe.wav
Pre-gap length 0:00:03.69
Peak level 83.2 %
Extraction speed 1.9 X
Track quality 99.9 %
Test CRC 14CBE55B
Copy CRC 14CBE55B
Accurately ripped (confidence 3) [ED909EB4] (AR v1)
Copy OK
Track 9
Filename D:\EAC\Cal Tjader - Black Orchid (1993) [FLAC]\09 - I've Waited So Long.wav
Pre-gap length 0:00:03.46
Peak level 74.6 %
Extraction speed 2.0 X
Track quality 100.0 %
Test CRC 0CE4F386
Copy CRC 0CE4F386
Accurately ripped (confidence 4) [1A351BCC] (AR v1)
Copy OK
Track 10
Filename D:\EAC\Cal Tjader - Black Orchid (1993) [FLAC]\10 - Out of Nowhere.wav
Pre-gap length 0:00:03.64
Peak level 75.2 %
Extraction speed 2.0 X
Track quality 99.9 %
Test CRC B4AB2CF9
Copy CRC B4AB2CF9
Accurately ripped (confidence 4) [ECA4BC68] (AR v1)
Copy OK
Track 11
Filename D:\EAC\Cal Tjader - Black Orchid (1993) [FLAC]\11 - Guajira at the Blackhawk.wav
Pre-gap length 0:00:03.49
Peak level 62.6 %
Extraction speed 2.5 X
Track quality 100.0 %
Test CRC 7314098B
Copy CRC 7314098B
Accurately ripped (confidence 4) [5BD49361] (AR v1)
Copy OK
Track 12
Filename D:\EAC\Cal Tjader - Black Orchid (1993) [FLAC]\12 - I Want to Be Happy.wav
Pre-gap length 0:00:03.82
Peak level 66.4 %
Extraction speed 2.1 X
Track quality 99.9 %
Test CRC 06E0F999
Copy CRC 06E0F999
Accurately ripped (confidence 4) [61D37752] (AR v1)
Copy OK
Track 13
Filename D:\EAC\Cal Tjader - Black Orchid (1993) [FLAC]\13 - The Nearness of You.wav
Pre-gap length 0:00:05.00
Peak level 60.8 %
Extraction speed 2.6 X
Track quality 100.0 %
Test CRC 729A694B
Copy CRC 729A694B
Accurately ripped (confidence 4) [7ED597C4] (AR v1)
Copy OK
Track 14
Filename D:\EAC\Cal Tjader - Black Orchid (1993) [FLAC]\14 - Pete Kelly's Blues.wav
Pre-gap length 0:00:03.84
Peak level 78.4 %
Extraction speed 2.7 X
Track quality 100.0 %
Test CRC F9F45217
Copy CRC F9F45217
Accurately ripped (confidence 4) [0565F39B] (AR v1)
Copy OK
Track 15
Filename D:\EAC\Cal Tjader - Black Orchid (1993) [FLAC]\15 - A Minor Goof.wav
Pre-gap length 0:00:03.16
Peak level 75.2 %
Extraction speed 2.4 X
Track quality 99.9 %
Test CRC CEBCFB1F
Copy CRC CEBCFB1F
Accurately ripped (confidence 4) [8DCECE5E] (AR v1)
Copy OK
Track 16
Filename D:\EAC\Cal Tjader - Black Orchid (1993) [FLAC]\16 - Undecided.wav
Pre-gap length 0:00:03.49
Peak level 83.3 %
Extraction speed 2.7 X
Track quality 100.0 %
Test CRC 034ECB5C
Copy CRC 034ECB5C
Accurately ripped (confidence 4) [F1F85989] (AR v1)
Copy OK
Track 17
Filename D:\EAC\Cal Tjader - Black Orchid (1993) [FLAC]\17 - Philadelphia Mambo.wav
Pre-gap length 0:00:02.82
Peak level 67.7 %
Extraction speed 2.8 X
Track quality 100.0 %
Test CRC E8118A4D
Copy CRC E8118A4D
Accurately ripped (confidence 4) [FB5793C0] (AR v1)
Copy OK
Track 18
Filename D:\EAC\Cal Tjader - Black Orchid (1993) [FLAC]\18 - Flamingo.wav
Pre-gap length 0:00:03.30
Peak level 70.6 %
Extraction speed 2.9 X
Track quality 100.0 %
Test CRC 142BBA6B
Copy CRC 142BBA6B
Accurately ripped (confidence 4) [E5C2951B] (AR v1)
Copy OK
Track 19
Filename D:\EAC\Cal Tjader - Black Orchid (1993) [FLAC]\19 - Stompin' at the Savoy.wav
Pre-gap length 0:00:04.62
Peak level 67.2 %
Extraction speed 3.0 X
Track quality 100.0 %
Test CRC 02F59EA7
Copy CRC 02F59EA7
Accurately ripped (confidence 4) [1D600658] (AR v1)
Copy OK
Track 20
Filename D:\EAC\Cal Tjader - Black Orchid (1993) [FLAC]\20 - Laura.wav
Pre-gap length 0:00:04.29
Peak level 69.8 %
Extraction speed 2.6 X
Track quality 99.9 %
Test CRC 38A1911A
Copy CRC 38A1911A
Accurately ripped (confidence 4) [B7C1F23E] (AR v1)
Copy OK
Track 21
Filename D:\EAC\Cal Tjader - Black Orchid (1993) [FLAC]\21 - Lullaby of Birdland.wav
Pre-gap length 0:00:03.36
Peak level 78.3 %
Extraction speed 3.2 X
Track quality 100.0 %
Test CRC AE9A27DF
Copy CRC AE9A27DF
Accurately ripped (confidence 4) [253DBD3B] (AR v1)
Copy OK
All tracks accurately ripped
No errors occurred
End of status report
---- CUETools DB Plugin V2.1.3
[CTDB TOCID: dEUdZRyZYhJYIakSQIRI.duf9GU-] disk not present in database, Submit result: dEUdZRyZYhJYIakSQIRI.duf9GU- has been uploaded
==== Log checksum B0DFA15676F755E7423C33E0609BE80DAB77874722D56837C702DDAF25E9EA6C ====
 
Содержание индексной карты (.CUE)
REM GENRE Jazz
REM DATE 1993
REM DISCID 2111D115
REM COMMENT "ExactAudioCopy v1.0b3"
FILE "01. Mi China.flac" WAVE
TRACK 01 AUDIO
INDEX 01 00:00:00
TRACK 02 AUDIO
INDEX 00 02:16:07
FILE "02. Close Your Eyes.flac" WAVE
INDEX 01 00:00:00
TRACK 03 AUDIO
INDEX 00 03:11:03
FILE "03. Mambo At The 'M'.flac" WAVE
INDEX 01 00:00:00
TRACK 04 AUDIO
INDEX 00 04:39:27
FILE "04. Contigo.flac" WAVE
INDEX 01 00:00:00
TRACK 05 AUDIO
INDEX 00 02:38:72
FILE "05. Bonita.flac" WAVE
INDEX 01 00:00:00
TRACK 06 AUDIO
INDEX 00 02:27:28
FILE "06. The Lady Is A Tramp.flac" WAVE
INDEX 01 00:00:00
TRACK 07 AUDIO
INDEX 00 04:31:68
FILE "07. Black Orchid.flac" WAVE
INDEX 01 00:00:00
TRACK 08 AUDIO
INDEX 00 03:23:48
FILE "08. Happiness Is A Thing Called Joe.flac" WAVE
INDEX 01 00:00:00
TRACK 09 AUDIO
INDEX 00 03:43:68
FILE "09. I've Waited So Long.flac" WAVE
INDEX 01 00:00:00
TRACK 10 AUDIO
INDEX 00 02:07:47
FILE "10. Out Of Nowhere.flac" WAVE
INDEX 01 00:00:00
TRACK 11 AUDIO
INDEX 00 03:25:50
FILE "11. Guajira At The Blackhawk.flac" WAVE
INDEX 01 00:00:00
TRACK 12 AUDIO
INDEX 00 05:19:53
FILE "12. I Want To Be Happy.flac" WAVE
INDEX 01 00:00:00
TRACK 13 AUDIO
INDEX 00 03:16:40
FILE "13. The Nearness Of You.flac" WAVE
INDEX 01 00:00:00
TRACK 14 AUDIO
INDEX 00 03:53:60
FILE "14. Pete Kelly's Blues.flac" WAVE
INDEX 01 00:00:00
TRACK 15 AUDIO
INDEX 00 03:48:40
FILE "15. A Minor Goof.flac" WAVE
INDEX 01 00:00:00
TRACK 16 AUDIO
INDEX 00 03:52:18
FILE "16. Undecided.flac" WAVE
INDEX 01 00:00:00
TRACK 17 AUDIO
INDEX 00 03:20:38
FILE "17. Philadelphia Mambo.flac" WAVE
INDEX 01 00:00:00
TRACK 18 AUDIO
INDEX 00 03:20:70
FILE "18. Flamingo.flac" WAVE
INDEX 01 00:00:00
TRACK 19 AUDIO
INDEX 00 04:10:60
FILE "19. Stompin' At The Savoy.flac" WAVE
INDEX 01 00:00:00
TRACK 20 AUDIO
INDEX 00 03:59:23
FILE "20. Laura.flac" WAVE
INDEX 01 00:00:00
TRACK 21 AUDIO
INDEX 00 03:19:13
FILE "21. Lullaby Of Birdland.flac" WAVE
INDEX 01 00:00:00
 
Об альбоме (сборнике)
Black Orchid is a remastered compilation of two earlier Cal Tjader LPs, Cal Tjader Goes Latin and Cal Tjader Quintet.
"Cal Tjader had a simple formula for maintaining his standing at the head of the Latin jazz pack. He simply hired the most knowledgeable Afro-Cuban percussionists, and the most flexible jazz rhythm sections, then frequently added extra spice to the mix with a flute or tenor sax soloist of equal quality. The two albums combined here provide a survey of Tjader’s bands, 1956-1959, with such respected names as Willie Bobo, Vince Guaraldi, Paul Horn, Al McKibbon, Mongo Santamaria, Eugene Wright, and the great Cuban saxophonist José “Chombo” Silva all supporting the leader’s innovative approach to both his instrument and the genre."
 
Состав
José "Chombo" Silva (Saxophone)
Paul Horn (Flute)
Vince Guaraldi (Piano)
Lonnie Hewitt (Piano)
Manuel Duran (Piano)
Eugene Wright (Bass)
Carlos Duran (Bass)
Al McKibbon (Bass)
Willie Bobo (Drums, Timbales)
Luis Kant (Conga Drums)
Mongo Santamaria (Conga Drums)
Luis Miranda (Conga Drums)
Bayardo Velarde (Timbales)
01:43
405
Нет комментариев. Ваш будет первым!