Поиск

(Latin Jazz, Afro-Cuban Jazz) Cal Tjader - Primo (1973) - 1993, FLAC (tracks+.cue), lossless

(Latin Jazz, Afro-Cuban Jazz) Cal Tjader - Primo (1973) - 1993, FLAC (tracks+.cue), lossless
Треклист:
Cal Tjader – Primo (1973)
Жанр: Latin Jazz, Afro-Cuban Jazz
Год издания диска: 1993
Издатель (лейбл): OJC/Fantasy
Номер по каталогу: OJCCD-762-2
Аудиокодек: FLAC (*.flac)
Тип рипа: tracks+.cue
Битрейт аудио: lossless
Продолжительность: 41:04
Источник: вата
Сканов
Треклист:
01. Mama Guela (4:16)
02. Bang Bang (4:07)
03. Gringo City (5:42)
04. Vibe Mambo (3:12)
05. Mambo Show (5:17)
06. Azucar Mama (4:19)
07. La Murga Pana Mena (3:04)
08. Tanga (3:13)
09. El Watusi (1:49)
10. Bang Bang (bonus track) (6:05)
Personnel:
Cal Tjader - vibes
Jose Merino, Louis Laurita - trumpet
Jack Jeffers - bass trombone, tuba
Bobby Nelson - tenor saxophone
Charlie Palmieri - keyboards
Bobby Rodriguez - electric bass
Enrique Davila, Tito Puente (only # 8) - timbales
Ismael Quintana, Victor Aviles, Victor Velasquez - percussion, vocals
William Rodriguez - bongos
Luis Rodriguez - conga
Rec.: February 8 & 9, 1973.
 
 
Лог создания рипа
X Lossless Decoder version 20100424 (118.0)
XLD extraction logfile from 2010-04-30 00:28:26 -0400
Cal Tjader / Primo
Used drive : MATSHITA DVD-R UJ-857E (revision ZF1E)
Use cdparanoia mode : YES (CDParanoia III 10.2 engine)
Disable audio cache : OK for the drive with cache less than 2750KB
Make use of C2 pointers : NO
Read offset correction : 102
Max retry count : 100
TOC of the extracted CD
Track | Start | Length | Start sector | End sector
---------------------------------------------------------
1 | 00:00:00 | 04:15:45 | 0 | 19169
2 | 04:15:45 | 04:07:08 | 19170 | 37702
3 | 08:22:53 | 05:42:02 | 37703 | 63354
4 | 14:04:55 | 03:12:30 | 63355 | 77784
5 | 17:17:10 | 05:17:30 | 77785 | 101589
6 | 22:34:40 | 04:18:60 | 101590 | 120999
7 | 26:53:25 | 03:03:70 | 121000 | 134794
8 | 29:57:20 | 03:13:15 | 134795 | 149284
9 | 33:10:35 | 01:49:13 | 149285 | 157472
10 | 34:59:48 | 06:04:47 | 157473 | 184819
List of alternate offset correction values
# | Absolute | Relative | Confidence
------------------------------------------
1 | 1024 | 922 | 2
All Tracks
Album gain : -1.88 dB
Peak : 0.999969
Track 01
Filename : /Volumes/MADLIB/01 Cal Tjader - Mama Guela.flac
Pre-gap length : 00:02:00
Track gain : -3.17 dB
Peak : 0.999969
CRC32 hash (test run) : BE083CBA
CRC32 hash : BE083CBA
CRC32 hash (skip zero) : 03FAC8B3
AccurateRip signature : 9575E112
->Rip may not be accurate.
Statistics
Read error : 0
Skipped (treated as error) : 0
Edge jitter error (maybe fixed) : 0
Atom jitter error (maybe fixed) : 0
Drift error (maybe fixed) : 0
Dropped bytes error (maybe fixed) : 0
Duplicated bytes error (maybe fixed) : 0
Inconsistency in error sectors : 0
Track 02
Filename : /Volumes/MADLIB/02 Cal Tjader - Bang Bang.flac
Pre-gap length : 00:04:15
Track gain : -1.31 dB
Peak : 0.988922
CRC32 hash (test run) : 9A5D696B
CRC32 hash : 9A5D696B
CRC32 hash (skip zero) : A184116C
AccurateRip signature : 21B818F4
->Accurately ripped! (confidence 2)
(matched with the different offset correction value;
calculated using an additional offset of 922;
the signature after correction is: A8ED644A)
Statistics
Read error : 0
Skipped (treated as error) : 0
Edge jitter error (maybe fixed) : 0
Atom jitter error (maybe fixed) : 0
Drift error (maybe fixed) : 0
Dropped bytes error (maybe fixed) : 0
Duplicated bytes error (maybe fixed) : 0
Inconsistency in error sectors : 0
Track 03
Filename : /Volumes/MADLIB/03 Cal Tjader - Gringo City.flac
Pre-gap length : 00:06:20
Track gain : -1.11 dB
Peak : 0.999969
CRC32 hash (test run) : F232D25C
CRC32 hash : F232D25C
CRC32 hash (skip zero) : 31759D67
AccurateRip signature : 75F76021
->Accurately ripped! (confidence 2)
(matched with the different offset correction value;
calculated using an additional offset of 922;
the signature after correction is: 134BB8BC)
Statistics
Read error : 0
Skipped (treated as error) : 0
Edge jitter error (maybe fixed) : 0
Atom jitter error (maybe fixed) : 0
Drift error (maybe fixed) : 0
Dropped bytes error (maybe fixed) : 0
Duplicated bytes error (maybe fixed) : 0
Inconsistency in error sectors : 0
Track 04
Filename : /Volumes/MADLIB/04 Cal Tjader - Vibe Mambo.flac
Pre-gap length : 00:04:60
Track gain : -2.03 dB
Peak : 0.994812
CRC32 hash (test run) : 2F4A1A88
CRC32 hash : 2F4A1A88
CRC32 hash (skip zero) : 535A6644
AccurateRip signature : 4722E175
->Track not present in AccurateRip database.
Statistics
Read error : 0
Skipped (treated as error) : 0
Edge jitter error (maybe fixed) : 0
Atom jitter error (maybe fixed) : 0
Drift error (maybe fixed) : 0
Dropped bytes error (maybe fixed) : 0
Duplicated bytes error (maybe fixed) : 0
Inconsistency in error sectors : 0
Track 05
Filename : /Volumes/MADLIB/05 Cal Tjader - Mambo Show.flac
Pre-gap length : 00:02:27
Track gain : -1.71 dB
Peak : 0.840118
CRC32 hash (test run) : 760532AC
CRC32 hash : 760532AC
CRC32 hash (skip zero) : 0B77A538
AccurateRip signature : 82F8C62B
->Track not present in AccurateRip database.
Statistics
Read error : 0
Skipped (treated as error) : 0
Edge jitter error (maybe fixed) : 0
Atom jitter error (maybe fixed) : 0
Drift error (maybe fixed) : 0
Dropped bytes error (maybe fixed) : 0
Duplicated bytes error (maybe fixed) : 0
Inconsistency in error sectors : 0
Track 06
Filename : /Volumes/MADLIB/06 Cal Tjader - Azucar Mama.flac
Pre-gap length : 00:05:07
Track gain : -1.01 dB
Peak : 0.813385
CRC32 hash (test run) : F362A130
CRC32 hash : F362A130
CRC32 hash (skip zero) : 2FB0B945
AccurateRip signature : 14091E8C
->Track not present in AccurateRip database.
Statistics
Read error : 0
Skipped (treated as error) : 0
Edge jitter error (maybe fixed) : 0
Atom jitter error (maybe fixed) : 0
Drift error (maybe fixed) : 0
Dropped bytes error (maybe fixed) : 0
Duplicated bytes error (maybe fixed) : 0
Inconsistency in error sectors : 0
Track 07
Filename : /Volumes/MADLIB/07 Cal Tjader - La Murga Pana Mena.flac
Pre-gap length : 00:06:20
Track gain : -0.99 dB
Peak : 0.815552
CRC32 hash (test run) : 773610AD
CRC32 hash : 773610AD
CRC32 hash (skip zero) : 27489CF0
AccurateRip signature : DB9685BF
->Accurately ripped! (confidence 2)
(matched with the different offset correction value;
calculated using an additional offset of 922;
the signature after correction is: FF99385F)
Statistics
Read error : 0
Skipped (treated as error) : 0
Edge jitter error (maybe fixed) : 0
Atom jitter error (maybe fixed) : 0
Drift error (maybe fixed) : 0
Dropped bytes error (maybe fixed) : 0
Duplicated bytes error (maybe fixed) : 0
Inconsistency in error sectors : 0
Track 08
Filename : /Volumes/MADLIB/08 Cal Tjader - Tanga.flac
Pre-gap length : 00:04:20
Track gain : -2.09 dB
Peak : 0.886536
CRC32 hash (test run) : C7CD45E1
CRC32 hash : C7CD45E1
CRC32 hash (skip zero) : F0B9662B
AccurateRip signature : 4F2B5DFA
->Accurately ripped! (confidence 2)
(matched with the different offset correction value;
calculated using an additional offset of 922;
the signature after correction is: D51A9EC6)
Statistics
Read error : 0
Skipped (treated as error) : 0
Edge jitter error (maybe fixed) : 0
Atom jitter error (maybe fixed) : 0
Drift error (maybe fixed) : 0
Dropped bytes error (maybe fixed) : 0
Duplicated bytes error (maybe fixed) : 0
Inconsistency in error sectors : 0
Track 09
Filename : /Volumes/MADLIB/09 Cal Tjader - El Watusi.flac
Pre-gap length : 00:05:07
Track gain : -1.55 dB
Peak : 0.997650
CRC32 hash (test run) : 34FC38DA
CRC32 hash : 34FC38DA
CRC32 hash (skip zero) : 6BE2F05A
AccurateRip signature : DDFEE083
->Accurately ripped! (confidence 2)
(matched with the different offset correction value;
calculated using an additional offset of 922;
the signature after correction is: 63A2C5BC)
Statistics
Read error : 0
Skipped (treated as error) : 0
Edge jitter error (maybe fixed) : 0
Atom jitter error (maybe fixed) : 0
Drift error (maybe fixed) : 0
Dropped bytes error (maybe fixed) : 0
Duplicated bytes error (maybe fixed) : 0
Inconsistency in error sectors : 0
Track 10
Filename : /Volumes/MADLIB/10 Cal Tjader - Bang Bang Bonus Track.flac
Pre-gap length : 00:01:25
Track gain : -2.42 dB
Peak : 0.823914
CRC32 hash (test run) : B9054FC1
CRC32 hash : B9054FC1
CRC32 hash (skip zero) : F766850D
AccurateRip signature : D2010C0C
->Rip may not be accurate.
Statistics
Read error : 0
Skipped (treated as error) : 0
Edge jitter error (maybe fixed) : 0
Atom jitter error (maybe fixed) : 0
Drift error (maybe fixed) : 0
Dropped bytes error (maybe fixed) : 0
Duplicated bytes error (maybe fixed) : 0
Inconsistency in error sectors : 0
No errors occurred
End of status report
 
Содержание индексной карты (.CUE)
REM DATE 1973
REM GENRE Jazz
PERFORMER "Cal Tjader"
TITLE "Primo"
FILE "01. Mama Guela.flac" WAVE
TRACK 01 AUDIO
TITLE "Mama Guela"
INDEX 01 00:00:00
TRACK 02 AUDIO
TITLE "Bang Bang"
INDEX 00 04:11:30
FILE "02. Bang Bang.flac" WAVE
INDEX 01 00:00:00
TRACK 03 AUDIO
TITLE "Gringo City"
INDEX 00 04:00:63
FILE "03. Gringo City.flac" WAVE
INDEX 01 00:00:00
TRACK 04 AUDIO
TITLE "Vibe Mambo"
INDEX 00 05:37:17
FILE "04. Vibe Mambo.flac" WAVE
INDEX 01 00:00:00
TRACK 05 AUDIO
TITLE "Mambo Show"
INDEX 00 03:10:03
FILE "05. Mambo Show.flac" WAVE
INDEX 01 00:00:00
TRACK 06 AUDIO
TITLE "Azucar Mama"
INDEX 00 05:12:23
FILE "06. Azucar Mama.flac" WAVE
INDEX 01 00:00:00
TRACK 07 AUDIO
TITLE "La Murga Pana Mena"
INDEX 00 04:12:40
FILE "07. La Murga Pana Mena.flac" WAVE
INDEX 01 00:00:00
TRACK 08 AUDIO
TITLE "Tanga"
INDEX 00 02:59:50
FILE "08. Tanga.flac" WAVE
INDEX 01 00:00:00
TRACK 09 AUDIO
TITLE "El Watusi"
INDEX 00 03:08:08
FILE "09. El Watusi.flac" WAVE
INDEX 01 00:00:00
TRACK 10 AUDIO
TITLE "Bang Bang (bonus track)"
INDEX 00 01:47:63
FILE "10. Bang Bang (bonus track).flac" WAVE
INDEX 01 00:00:00
 
AccurateRip
[CUETools log; Date: 20.02.2012 19:22:12; Version: 2.0.9]
[CTDB TOCID: C0Bb8z3tMshwIrBL_9rwEPMcR64-] found.
[ CTDBID ] Status
[ebd92cf9] (1/1) Accurately ripped
[AccurateRip ID: 000ff9c0-007e57ca-8709a00a] found.
Track [ CRC ] Status
01 [9575e112] (0/3) No match
02 [21b818f4] (0/3) No match
03 [75f76021] (0/3) No match
04 [4722e175] (0/2) No match
05 [82f8c62b] (0/2) No match
06 [14091e8c] (0/2) No match
07 [db9685bf] (0/3) No match
08 [4f2b5dfa] (0/3) No match
09 [ddfee083] (0/3) No match
10 [d2010c0c] (0/3) No match
Offsetted by 922:
01 [3df6bbdf] (3/3) Accurately ripped
02 [a8ed644a] (3/3) Accurately ripped
03 [134bb8bc] (3/3) Accurately ripped
04 [b4e4d969] (2/2) Accurately ripped
05 [856ca795] (2/2) Accurately ripped
06 [769c610f] (2/2) Accurately ripped
07 [ff99385f] (3/3) Accurately ripped
08 [d51a9ec6] (3/3) Accurately ripped
09 [63a2c5bc] (3/3) Accurately ripped
10 [72a8f001] (3/3) Accurately ripped
Track Peak [ CRC32 ] [W/O NULL]
-- 100,0 [5D9FD6FD] [2BE7CCF2]
01 100,0 [BE083CBA] [03FAC8B3]
02 98,8 [9A5D696B] [A184116C]
03 100,0 [F232D25C] [31759D67]
04 99,4 [2F4A1A88] [535A6644]
05 84,0 [760532AC] [0B77A538]
06 81,3 [F362A130] [2FB0B945]
07 81,5 [773610AD] [27489CF0]
08 88,6 [C7CD45E1] [F0B9662B]
09 99,7 [34FC38DA] [6BE2F05A]
10 82,3 [B9054FC1] [F766850D]
 
Об альбоме (сборнике)
This CD brings back one of Cal Tjader's best late-period recordings and finds the vibraphonist adapting his 1950s Latin jazz concept to the 1970s without losing any vitality. Tjader is joined by four horns, the legendary keyboardist Charlie Palmieri, electric bassist Bobby Rodriguez, and six percussionists; Tito Puente (who plays timbales on Mario Bauza's "Tanga") and Palmieri provided the heated arrangements. A previously unreleased alternate take of "Bang Bang" is added to the CD reissue. Highly recommended to collectors of Latin jazz.
~ Scott Yanow
02:44
291
Нет комментариев. Ваш будет первым!