Поиск

(Ethnic Jazz) Armen Chakmakian - Caravans - 2004, FLAC (image+.cue), lossless

(Ethnic Jazz) Armen Chakmakian - Caravans - 2004, FLAC (image+.cue), lossless
Треклист:
Armen Chakmakian / Caravans
Жанр: Ethnic Jazz
Страна-производитель диска: USA
Год издания диска: 2004
Издатель (лейбл): TruArtRecords
Номер по каталогу: TR 43211-2
Страна: USA
Аудиокодек: FLAC (*.flac)
Тип рипа: image+.cue
Битрейт аудио: lossless
Продолжительность: 58:51
Источник (релизер): коллекц. CD
Наличие сканов в содержимом раздачи: да
Треклист:
1. Fire Dance 5:17
2. Spirits Ride 6:16
3. Caravans 6:12
4. El Mirage 5:07
5. Without A Word 6:14
6. September 3:16
7. Trio 5:22
8. Hope Rising 5:20
Birdsong Medley
9. Journey Home 2:05
10. Birdsong 5:17
11. Journey's End 3:28
12. Last Dance 4:42
 
Лог создания рипа
Exact Audio Copy V1.0 beta 3 from 29. August 2011
EAC extraction logfile from 11. February 2012, 15:50
Armen Chakmakian / Caravans
Used drive : Optiarc DVD RW AD-7200S Adapter: 1 ID: 0
Read mode : Secure
Utilize accurate stream : Yes
Defeat audio cache : Yes
Make use of C2 pointers : No
Read offset correction : 48
Overread into Lead-In and Lead-Out : No
Fill up missing offset samples with silence : Yes
Delete leading and trailing silent blocks : No
Null samples used in CRC calculations : Yes
Used interface : Installed external ASPI interface
Used output format : Internal WAV Routines
Sample format : 44.100 Hz; 16 Bit; Stereo
TOC of the extracted CD
Track | Start | Length | Start sector | End sector
---------------------------------------------------------
1 | 0:00.00 | 5:17.72 | 0 | 23846
2 | 5:17.72 | 6:17.48 | 23847 | 52169
3 | 11:35.45 | 6:12.65 | 52170 | 80134
4 | 17:48.35 | 5:08.55 | 80135 | 103289
5 | 22:57.15 | 6:16.17 | 103290 | 131506
6 | 29:13.32 | 3:16.73 | 131507 | 146279
7 | 32:30.30 | 5:24.07 | 146280 | 170586
8 | 37:54.37 | 5:22.50 | 170587 | 194786
9 | 43:17.12 | 2:04.73 | 194787 | 204159
10 | 45:22.10 | 5:16.57 | 204160 | 227916
11 | 50:38.67 | 3:30.58 | 227917 | 243724
12 | 54:09.50 | 4:41.52 | 243725 | 264851
Range status and errors
Selected range
Filename F:\ХРАНИЛИЩЕ\AUDIO\LOSSLESS\Chakmakian-Caravans\Armen Chakmakian - Caravans.wav
Peak level 100.0 %
Extraction speed 3.1 X
Range quality 100.0 %
Test CRC B29DD882
Copy CRC B29DD882
Copy OK
No errors occurred
AccurateRip summary
Track 1 accurately ripped (confidence 1) [5CAED9C7] (AR v1)
Track 2 accurately ripped (confidence 1) [1262DA4B] (AR v1)
Track 3 accurately ripped (confidence 1) [A18A1357] (AR v1)
Track 4 accurately ripped (confidence 1) [FCBE24E3] (AR v1)
Track 5 accurately ripped (confidence 1) [ABBB1B05] (AR v1)
Track 6 accurately ripped (confidence 1) [2C7B784B] (AR v1)
Track 7 accurately ripped (confidence 1) [2874F9C6] (AR v1)
Track 8 accurately ripped (confidence 1) [EDA07BB8] (AR v1)
Track 9 accurately ripped (confidence 1) [F1FE9184] (AR v1)
Track 10 accurately ripped (confidence 1) [3A6ACD80] (AR v1)
Track 11 accurately ripped (confidence 1) [78049C44] (AR v1)
Track 12 accurately ripped (confidence 1) [0A7894E4] (AR v1)
All tracks accurately ripped
End of status report
 
Содержание индексной карты (.CUE)
REM GENRE "New Age"
REM DATE 2004
REM DISCID AF0DCB0C
REM COMMENT "ExactAudioCopy v1.0b3"
PERFORMER "Armen Chakmakian"
TITLE "Caravans"
FILE "Armen Chakmakian - Caravans.flac" WAVE
TRACK 01 AUDIO
TITLE "Fire Dance"
PERFORMER "Armen Chakmakian"
INDEX 01 00:00:00
TRACK 02 AUDIO
TITLE "Spirits Ride"
PERFORMER "Armen Chakmakian"
INDEX 00 05:17:32
INDEX 01 05:17:72
TRACK 03 AUDIO
TITLE "Caravans"
PERFORMER "Armen Chakmakian"
INDEX 00 11:34:00
INDEX 01 11:35:45
TRACK 04 AUDIO
TITLE "El Mirage"
PERFORMER "Armen Chakmakian"
INDEX 00 17:47:57
INDEX 01 17:48:35
TRACK 05 AUDIO
TITLE "Without a Word"
PERFORMER "Armen Chakmakian"
INDEX 00 22:55:07
INDEX 01 22:57:15
TRACK 06 AUDIO
TITLE "September"
PERFORMER "Armen Chakmakian"
INDEX 00 29:11:32
INDEX 01 29:13:32
TRACK 07 AUDIO
TITLE "Trio"
PERFORMER "Armen Chakmakian"
INDEX 00 32:29:02
INDEX 01 32:30:30
TRACK 08 AUDIO
TITLE "Hope Rising"
PERFORMER "Armen Chakmakian"
INDEX 00 37:52:47
INDEX 01 37:54:37
TRACK 09 AUDIO
TITLE "Journey Home (Birdsong Medley)"
PERFORMER "Armen Chakmakian"
INDEX 00 43:14:37
INDEX 01 43:17:12
TRACK 10 AUDIO
TITLE "Birdsong (Birdsong Medley)"
PERFORMER "Armen Chakmakian"
INDEX 01 45:22:10
TRACK 11 AUDIO
TITLE "Jouney's End (Birdsong Medley)"
PERFORMER "Armen Chakmakian"
INDEX 01 50:38:67
TRACK 12 AUDIO
TITLE "Last Dance"
PERFORMER "Armen Chakmakian"
INDEX 00 54:07:25
INDEX 01 54:09:50
 
Об исполнителе (группе)
Джазовый клавишник, Армен решил в этом альбоме слить мягкий джаз с New Age'м. Получилось нечто нежное и воздушное, с всегдашней примесью этники и налетом романтики.
 
Об альбоме (сборнике)
"Караваны" - это внешняя проекция моего путешествия внутрь себя. Так же, как музыка для фильма отражает то, что вы видите на экране, так и эти композиции создавались для оценки моего жизненного пути за последние несколько лет. Подобно страничкам, вырванным из журнала, в них присутствуют заученные мной уроки, мои успехи, начинания, даже состояние нашего мира - все это и породило музыку альбома.
Всю мою жизнь музыка производила на меня неизгладимое впечатление. Она всегда была со мной - и в радости, и в горе. Я не знаю, существует ли на свете более сильного средства, наполняющего вас чувствами, чем прослушивание любимой песни или прекрасного выступления. Для меня цель искусства - заставить нас чувствовать, будить в себе эмоции и мысли, вдохновлять, успокаивать и исцелять.
Как музыкант я считаю своим долгом приложить максимум усилий для того, чтоб созидать искреннюю, светлую музыку. Я очень хочу, чтоб вы открыли свой слух, распахнули сердце, душу и разум и позволили этим звукам перенести вас к месту, где ждет исцеление.
 
Состав
Энди Абад - электро- и акустическая гитара;
Джон Билезикян - уд, скрипка;
Армен Чакмакян - клавишные, ударные;
Сюзан Чакмакян - вокал;
Мартин Флорес - ударные, тарелки;
Андре Арутюнян - ударные;
Жильбер Леви - ударные;
Дуг Ланн - бас;
Джон Уолкер - хлопки.
02:45
370
Нет комментариев. Ваш будет первым!