Поиск

(Latin Jazz, Brazilian,Samba) Caetano Veloso - Muitos Carnaval - 1977, FLAC (tracks+.cue), lossless

(Latin Jazz, Brazilian,Samba) Caetano Veloso - Muitos Carnaval - 1977, FLAC (tracks+.cue), lossless
Треклист:
Caetano Veloso / Muitos Carnaval
Жанр: Latin Jazz, Brazilian,Samba
Год издания: 1977
Аудиокодек: FLAC (*.flac)
Тип рипа:tracks+.cue
Битрейт аудио: lossless
Продолжительность: 00:35:51
Источник (релизер): сеть
Наличие сканов в содержимом раздачи: да
Треклист:
1. Muitos Carnavais (02:42)
2. Chuva, Suor E Cerveja (03:26)
3. A Filha Da Chiquita Bacana (03:32)
4. Deus E O Diabo (02:44)
5. Piaba (03:09)
6. Hora Da Razao (02:50)
7. Atras Do Trio Eletrico (02:44)
8. Um Frevo Novo (02:55)
9. Cara A Cara (03:03)
10. La Barca (02:06)
11. Qual e, Baiana? (02: 51)
12. Guarde Seu Conselho (03:49)
 
Лог создания рипа
Exact Audio Copy V1.1 from 23. June 2015
EAC extraction logfile from 22. August 2015, 0:27
Caetano Veloso / Muitos Carnavais
Used drive : HL-DT-STDVDRAM GA50N Adapter: 1 ID: 0
Read mode : Secure
Utilize accurate stream : Yes
Defeat audio cache : No
Make use of C2 pointers : No
Read offset correction : 6
Overread into Lead-In and Lead-Out : No
Fill up missing offset samples with silence : Yes
Delete leading and trailing silent blocks : No
Null samples used in CRC calculations : Yes
Used interface : Native Win32 interface for Win NT & 2000
Gap handling : Not detected, thus appended to previous track
Used output format : User Defined Encoder
Selected bitrate : 768 kBit/s
Quality : High
Add ID3 tag : No
Command line compressor : C:\Program Files (x86)\Exact Audio Copy\FLAC\FLAC.EXE
Additional command line options : -6 -V -T "ARTIST=%artist%" -T "TITLE=%title%" -T "ALBUM=%albumtitle%" -T "DATE=%year%" -T "TRACKNUMBER=%tracknr%" -T "GENRE=%genre%" -T "COMMENT=%comment%" -T "BAND=%albuminterpret%" -T "ALBUMARTIST=%albuminterpret%" -T "COMPOSER=%composer%" %haslyrics%--tag-from-file=LYRICS="%lyricsfile%"%haslyrics% -T "DISCNUMBER=%cdnumber%" -T "TOTALDISCS=%totalcds%" -T "TOTALTRACKS=%numtracks%" %hascover%--picture="%coverfile%"%hascover% %source% -o %dest%
TOC of the extracted CD
Track | Start | Length | Start sector | End sector
---------------------------------------------------------
1 | 0:00.00 | 2:41.42 | 0 | 12116
2 | 2:41.42 | 3:26.10 | 12117 | 27576
3 | 6:07.52 | 3:31.62 | 27577 | 43463
4 | 9:39.39 | 2:44.18 | 43464 | 55781
5 | 12:23.57 | 3:08.72 | 55782 | 69953
6 | 15:32.54 | 2:50.15 | 69954 | 82718
7 | 18:22.69 | 2:44.27 | 82719 | 95045
8 | 21:07.21 | 2:54.58 | 95046 | 108153
9 | 24:02.04 | 3:03.18 | 108154 | 121896
10 | 27:05.22 | 2:05.72 | 121897 | 131343
11 | 29:11.19 | 2:51.13 | 131344 | 144181
12 | 32:02.32 | 3:49.00 | 144182 | 161356
Track 1
Filename E:\MY EAC[.FLAC]\Caetano Veloso - Muitos Carnaval\1 Muitos Carnavais Caetano Veloso.flac
Peak level 98.8 %
Extraction speed 1.9 X
Track quality 100.0 %
Test CRC 4CE64BE9
Copy CRC 4CE64BE9
Accurately ripped (confidence 4) [619DD503] (AR v2)
Copy OK
Track 2
Filename E:\MY EAC[.FLAC]\Caetano Veloso - Muitos Carnaval\2 Chuva, Suor E Cerveja Caetano Veloso.flac
Peak level 98.8 %
Extraction speed 2.1 X
Track quality 100.0 %
Test CRC E9DE79EA
Copy CRC E9DE79EA
Accurately ripped (confidence 4) [095FDD1F] (AR v2)
Copy OK
Track 3
Filename E:\MY EAC[.FLAC]\Caetano Veloso - Muitos Carnaval\3 A Filha Da Chiquita Bacana Caetano Veloso.flac
Peak level 97.8 %
Extraction speed 2.3 X
Track quality 99.9 %
Test CRC F3E5092C
Copy CRC F3E5092C
Accurately ripped (confidence 4) [DC540346] (AR v2)
Copy OK
Track 4
Filename E:\MY EAC[.FLAC]\Caetano Veloso - Muitos Carnaval\4 Deus E O Diabo Caetano Veloso.flac
Peak level 98.8 %
Extraction speed 2.5 X
Track quality 100.0 %
Test CRC 5F2824B0
Copy CRC 5F2824B0
Accurately ripped (confidence 4) [A842633F] (AR v2)
Copy OK
Track 5
Filename E:\MY EAC[.FLAC]\Caetano Veloso - Muitos Carnaval\5 Piaba Caetano Veloso.flac
Peak level 98.8 %
Extraction speed 2.7 X
Track quality 100.0 %
Test CRC FC22D8AA
Copy CRC FC22D8AA
Accurately ripped (confidence 4) [9473CA9B] (AR v2)
Copy OK
Track 6
Filename E:\MY EAC[.FLAC]\Caetano Veloso - Muitos Carnaval\6 Hora Da Razao Caetano Veloso.flac
Peak level 96.9 %
Extraction speed 2.7 X
Track quality 100.0 %
Test CRC CC684D02
Copy CRC CC684D02
Accurately ripped (confidence 3) [754E8510] (AR v2)
Copy OK
Track 7
Filename E:\MY EAC[.FLAC]\Caetano Veloso - Muitos Carnaval\7 Atras Do Trio Eletrico Caetano Veloso.flac
Peak level 98.2 %
Extraction speed 2.8 X
Track quality 99.9 %
Test CRC 87F9A4D7
Copy CRC 87F9A4D7
Accurately ripped (confidence 3) [569BC954] (AR v2)
Copy OK
Track 8
Filename E:\MY EAC[.FLAC]\Caetano Veloso - Muitos Carnaval\8 Um Frevo Novo Caetano Veloso.flac
Peak level 98.8 %
Extraction speed 3.0 X
Track quality 100.0 %
Test CRC FE881CFA
Copy CRC FE881CFA
Accurately ripped (confidence 3) [B67B1FF8] (AR v2)
Copy OK
Track 9
Filename E:\MY EAC[.FLAC]\Caetano Veloso - Muitos Carnaval\9 Cara A Cara Caetano Veloso.flac
Peak level 98.8 %
Extraction speed 3.1 X
Track quality 99.9 %
Test CRC BB95146A
Copy CRC BB95146A
Accurately ripped (confidence 3) [F50E4481] (AR v2)
Copy OK
Track 10
Filename E:\MY EAC[.FLAC]\Caetano Veloso - Muitos Carnaval\10 La Barca Caetano Veloso.flac
Peak level 98.5 %
Extraction speed 3.2 X
Track quality 100.0 %
Test CRC 21667EA7
Copy CRC 21667EA7
Accurately ripped (confidence 3) [DA84FDF8] (AR v2)
Copy OK
Track 11
Filename E:\MY EAC[.FLAC]\Caetano Veloso - Muitos Carnaval\11 Qual e, Baiana Caetano Veloso.flac
Peak level 98.8 %
Extraction speed 3.3 X
Track quality 100.0 %
Test CRC 991AEAF3
Copy CRC 991AEAF3
Accurately ripped (confidence 3) [A08FAA03] (AR v2)
Copy OK
Track 12
Filename E:\MY EAC[.FLAC]\Caetano Veloso - Muitos Carnaval\12 Guarde Seu Conselho Caetano Veloso.flac
Peak level 97.5 %
Extraction speed 3.4 X
Track quality 100.0 %
Test CRC 8BD1147F
Copy CRC 8BD1147F
Accurately ripped (confidence 3) [FA176D85] (AR v2)
Copy OK
All tracks accurately ripped
No errors occurred
End of status report
==== Log checksum 796890599E547E0E221E7CE87F5440F8F99D2084421C5A3F7892C4A077070DF5 ====
 
Audiochecker log
AUDIOCHECKER v2.0 beta (build 457) - by Dester - opdester@freemail.hu
~~~~~~~~~~~~~~~~~~~~~~~~~~~~~~~~~~
Started at: суббота, 31. 10. 2015. - 11:09.41
12 files found
01 -===- F:\ЯЯЯЯ\Caetano Veloso - Muitos Carnaval\1 Muitos Carnavais Caetano Veloso.flac
Extracted successfully
Conclusion: this track is CDDA with probability 100%
Tempfile successfully deleted.
02 -===- F:\ЯЯЯЯ\Caetano Veloso - Muitos Carnaval\2 Chuva, Suor E Cerveja Caetano Veloso.flac
Extracted successfully
Conclusion: this track is CDDA with probability 100%
Tempfile successfully deleted.
03 -===- F:\ЯЯЯЯ\Caetano Veloso - Muitos Carnaval\3 A Filha Da Chiquita Bacana Caetano Veloso.flac
Extracted successfully
Conclusion: this track is CDDA with probability 100%
Tempfile successfully deleted.
04 -===- F:\ЯЯЯЯ\Caetano Veloso - Muitos Carnaval\4 Deus E O Diabo Caetano Veloso.flac
Extracted successfully
Conclusion: this track is CDDA with probability 100%
Tempfile successfully deleted.
05 -===- F:\ЯЯЯЯ\Caetano Veloso - Muitos Carnaval\5 Piaba Caetano Veloso.flac
Extracted successfully
Conclusion: this track is CDDA with probability 100%
Tempfile successfully deleted.
06 -===- F:\ЯЯЯЯ\Caetano Veloso - Muitos Carnaval\6 Hora Da Razao Caetano Veloso.flac
Error while extracting! Check your rights, free some space if needed and ensure the file is valid.
07 -===- F:\ЯЯЯЯ\Caetano Veloso - Muitos Carnaval\7 Atras Do Trio Eletrico Caetano Veloso.flac
Error while extracting! Check your rights, free some space if needed and ensure the file is valid.
08 -===- F:\ЯЯЯЯ\Caetano Veloso - Muitos Carnaval\8 Um Frevo Novo Caetano Veloso.flac
Extracted successfully
Conclusion: this track is CDDA with probability 100%
Tempfile successfully deleted.
09 -===- F:\ЯЯЯЯ\Caetano Veloso - Muitos Carnaval\9 Cara A Cara Caetano Veloso.flac
Extracted successfully
Conclusion: this track is CDDA with probability 100%
Tempfile successfully deleted.
10 -===- F:\ЯЯЯЯ\Caetano Veloso - Muitos Carnaval\10 La Barca Caetano Veloso.flac
Extracted successfully
Conclusion: this track is CDDA with probability 100%
Tempfile successfully deleted.
11 -===- F:\ЯЯЯЯ\Caetano Veloso - Muitos Carnaval\11 Qual e, Baiana Caetano Veloso.flac
Error while extracting! Check your rights, free some space if needed and ensure the file is valid.
12 -===- F:\ЯЯЯЯ\Caetano Veloso - Muitos Carnaval\12 Guarde Seu Conselho Caetano Veloso.flac
Extracted successfully
Conclusion: this track is CDDA with probability 100%
Tempfile successfully deleted.
Finished at: суббота, 31. 10. 2015. - 11:12.19 (operation time: 0:02.38)
 
Содержание индексной карты (.CUE)
REM GENRE MPB
REM DATE 1977
REM DISCID A108670C
REM COMMENT "ExactAudioCopy v1.1"
PERFORMER "Caetano Veloso"
TITLE "Muitos Carnavais"
FILE "1 Muitos Carnavais Caetano Veloso.flac" WAVE
TRACK 01 AUDIO
TITLE "Muitos Carnavais"
PERFORMER "Caetano Veloso"
INDEX 01 00:00:00
TRACK 02 AUDIO
TITLE "Chuva, Suor E Cerveja"
PERFORMER "Caetano Veloso"
INDEX 00 02:39:72
FILE "2 Chuva, Suor E Cerveja Caetano Veloso.flac" WAVE
INDEX 01 00:00:00
TRACK 03 AUDIO
TITLE "A Filha Da Chiquita Bacana"
PERFORMER "Caetano Veloso"
INDEX 00 03:24:58
FILE "3 A Filha Da Chiquita Bacana Caetano Veloso.flac" WAVE
INDEX 01 00:00:00
FILE "4 Deus E O Diabo Caetano Veloso.flac" WAVE
TRACK 04 AUDIO
TITLE "Deus E O Diabo"
PERFORMER "Caetano Veloso"
INDEX 01 00:00:00
TRACK 05 AUDIO
TITLE "Piaba"
PERFORMER "Caetano Veloso"
INDEX 00 02:42:66
FILE "5 Piaba Caetano Veloso.flac" WAVE
INDEX 01 00:00:00
TRACK 06 AUDIO
TITLE "Hora Da Razao"
PERFORMER "Caetano Veloso"
INDEX 00 03:07:41
FILE "6 Hora Da Razao Caetano Veloso.flac" WAVE
INDEX 01 00:00:00
TRACK 07 AUDIO
TITLE "Atras Do Trio Eletrico"
PERFORMER "Caetano Veloso"
INDEX 00 02:48:45
FILE "7 Atras Do Trio Eletrico Caetano Veloso.flac" WAVE
INDEX 01 00:00:00
TRACK 08 AUDIO
TITLE "Um Frevo Novo"
PERFORMER "Caetano Veloso"
INDEX 00 02:42:73
FILE "8 Um Frevo Novo Caetano Veloso.flac" WAVE
INDEX 01 00:00:00
TRACK 09 AUDIO
TITLE "Cara A Cara"
PERFORMER "Caetano Veloso"
INDEX 00 02:53:42
FILE "9 Cara A Cara Caetano Veloso.flac" WAVE
INDEX 01 00:00:00
TRACK 10 AUDIO
TITLE "La Barca"
PERFORMER "Caetano Veloso"
INDEX 00 03:01:61
FILE "10 La Barca Caetano Veloso.flac" WAVE
INDEX 01 00:00:00
TRACK 11 AUDIO
TITLE "Qual e, Baiana?"
PERFORMER "Caetano Veloso"
INDEX 00 02:04:47
FILE "11 Qual e, Baiana Caetano Veloso.flac" WAVE
INDEX 01 00:00:00
TRACK 12 AUDIO
TITLE "Guarde Seu Conselho"
PERFORMER "Caetano Veloso"
INDEX 00 02:49:63
FILE "12 Guarde Seu Conselho Caetano Veloso.flac" WAVE
INDEX 01 00:00:00
19:47
418
Нет комментариев. Ваш будет первым!