Поиск

1973 Gal Costa - India {Universal Music, Mercury ‎514 994 2} [CD]

1973 Gal Costa - India {Universal Music, Mercury ‎514 994 2} [CD]
Стили:
Издатель (лейбл):
Номер по каталогу:
514 994 2

01. India (7:00)
02. Milho Verde (folclore portugues) (4:31)
03. Presente Cotidiano (3:04)
04. Volta (3:24)
05. Relance (5:07)
06. Da Maior Importancia (5:19)
07. Passarinho (5:36)
08. Pontos de Luz (2:49)
09. Desafinado (2:42)

Лог создания рипа
Exact Audio Copy V1.1 from 23. June 2015
EAC extraction logfile from 5. August 2015, 21:12
GAL COSTA / Índia
Used drive  : HL-DT-STDVDRAM GA50N   Adapter: 1  ID: 0
Read mode               : Secure
Utilize accurate stream : Yes
Defeat audio cache      : No
Make use of C2 pointers : No
Combined read/write offset correction       : 0
Overread into Lead-In and Lead-Out          : No
Fill up missing offset samples with silence : Yes
Delete leading and trailing silent blocks   : No
Null samples used in CRC calculations       : Yes
Used interface                              : Native Win32 interface for Win NT & 2000
Gap handling                                : Not detected, thus appended to previous track
Used output format              : User Defined Encoder
Selected bitrate                : 768 kBit/s
Quality                         : High
Add ID3 tag                     : No
Command line compressor         : C:\Program Files (x86)\Exact Audio Copy\FLAC\FLAC.EXE
Additional command line options : -6 -V -T "ARTIST=%artist%" -T "TITLE=%title%" -T "ALBUM=%albumtitle%" -T "DATE=%year%" -T "TRACKNUMBER=%tracknr%" -T "GENRE=%genre%" -T "COMMENT=%comment%" -T "BAND=%albuminterpret%" -T "ALBUMARTIST=%albuminterpret%" -T "COMPOSER=%composer%" %haslyrics%--tag-from-file=LYRICS="%lyricsfile%"%haslyrics% -T "DISCNUMBER=%cdnumber%" -T "TOTALDISCS=%totalcds%" -T "TOTALTRACKS=%numtracks%" %hascover%--picture="%coverfile%"%hascover% %source% -o %dest%
TOC of the extracted CD
     Track |   Start  |  Length  | Start sector | End sector
    ---------------------------------------------------------
        1  |  0:00.00 |  6:55.07 |         0    |    31131
        2  |  6:55.07 |  4:24.63 |     31132    |    50994
        3  | 11:19.70 |  2:58.05 |     50995    |    64349
        4  | 14:18.00 |  3:18.50 |     64350    |    79249
        5  | 17:36.50 |  5:02.60 |     79250    |   101959
        6  | 22:39.35 |  5:13.25 |    101960    |   125459
        7  | 27:52.60 |  5:27.15 |    125460    |   149999
        8  | 33:20.00 |  2:42.02 |    150000    |   162151
        9  | 36:02.02 |  2:39.30 |    162152    |   174106
Track  1
     Filename E:\MY EAC[.FLAC]\Gal Costa - India\1 India GAL COSTA.flac
     Peak level 93.0 %
     Extraction speed 2.1 X
     Track quality 100.0 %
     Test CRC 6E7EE807
     Copy CRC 6E7EE807
     Copy OK
Track  2
     Filename E:\MY EAC[.FLAC]\Gal Costa - India\2 Milho Verde (folclore português) GAL COSTA.flac
     Peak level 97.7 %
     Extraction speed 2.4 X
     Track quality 100.0 %
     Test CRC D4182665
     Copy CRC D4182665
     Copy OK
Track  3
     Filename E:\MY EAC[.FLAC]\Gal Costa - India\3 Presente Cotidiano GAL COSTA.flac
     Peak level 87.0 %
     Extraction speed 2.6 X
     Track quality 100.0 %
     Test CRC A54477C9
     Copy CRC A54477C9
     Copy OK
Track  4
     Filename E:\MY EAC[.FLAC]\Gal Costa - India\4 Volta GAL COSTA.flac
     Peak level 84.8 %
     Extraction speed 2.8 X
     Track quality 100.0 %
     Test CRC 1B476629
     Copy CRC 1B476629
     Copy OK
Track  5
     Filename E:\MY EAC[.FLAC]\Gal Costa - India\5 Relance GAL COSTA.flac
     Peak level 96.6 %
     Extraction speed 2.9 X
     Track quality 99.9 %
     Test CRC 54953D32
     Copy CRC 54953D32
     Copy OK
Track  6
     Filename E:\MY EAC[.FLAC]\Gal Costa - India\6 Da Maior Importância GAL COSTA.flac
     Peak level 91.5 %
     Extraction speed 3.1 X
     Track quality 100.0 %
     Test CRC D4ADEE0C
     Copy CRC D4ADEE0C
     Copy OK
Track  7
     Filename E:\MY EAC[.FLAC]\Gal Costa - India\7 Passarinho GAL COSTA.flac
     Peak level 75.4 %
     Extraction speed 3.3 X
     Track quality 100.0 %
     Test CRC B12CA15F
     Copy CRC B12CA15F
     Copy OK
Track  8
     Filename E:\MY EAC[.FLAC]\Gal Costa - India\8 Pontos De Luz GAL COSTA.flac
     Peak level 92.2 %
     Extraction speed 3.4 X
     Track quality 99.9 %
     Test CRC 2A999977
     Copy CRC 2A999977
     Copy OK
Track  9
     Filename E:\MY EAC[.FLAC]\Gal Costa - India\9 Desafinado GAL COSTA.flac
     Peak level 90.2 %
     Extraction speed 3.6 X
     Track quality 100.0 %
     Test CRC 1331005E
     Copy CRC 1331005E
     Copy OK
No errors occurred
End of status report
==== Log checksum 33D47CC3823863D34C9DF064EA53B37A02F0A6ED60436BE197978DD84CE4286B ====
Содержание индексной карты (.CUE)
REM GENRE MPB
REM DATE 1973
REM DISCID 67091109
REM COMMENT "ExactAudioCopy v1.1"
PERFORMER "GAL COSTA"
TITLE "India"
FILE "1 India GAL COSTA.wav" WAVE
  TRACK 01 AUDIO
    TITLE "India"
    PERFORMER "GAL COSTA"
    INDEX 01 00:00:00
FILE "2 Milho Verde (folclore portugues) GAL COSTA.wav" WAVE
  TRACK 02 AUDIO
    TITLE "Milho Verde (folclore portugues)"
    PERFORMER "GAL COSTA"
    INDEX 01 00:00:00
FILE "3 Presente Cotidiano GAL COSTA.wav" WAVE
  TRACK 03 AUDIO
    TITLE "Presente Cotidiano"
    PERFORMER "GAL COSTA"
    INDEX 01 00:00:00
FILE "4 Volta GAL COSTA.wav" WAVE
  TRACK 04 AUDIO
    TITLE "Volta"
    PERFORMER "GAL COSTA"
    INDEX 01 00:00:00
FILE "5 Relance GAL COSTA.wav" WAVE
  TRACK 05 AUDIO
    TITLE "Relance"
    PERFORMER "GAL COSTA"
    INDEX 01 00:00:00
FILE "6 Da Maior Importancia GAL COSTA.wav" WAVE
  TRACK 06 AUDIO
    TITLE "Da Maior Importancia"
    PERFORMER "GAL COSTA"
    INDEX 01 00:00:00
FILE "7 Passarinho GAL COSTA.wav" WAVE
  TRACK 07 AUDIO
    TITLE "Passarinho"
    PERFORMER "GAL COSTA"
    INDEX 01 00:00:00
FILE "8 Pontos De Luz GAL COSTA.wav" WAVE
  TRACK 08 AUDIO
    TITLE "Pontos De Luz"
    PERFORMER "GAL COSTA"
    INDEX 01 00:00:00
FILE "9 Desafinado GAL COSTA.wav" WAVE
  TRACK 09 AUDIO
    TITLE "Desafinado"
    PERFORMER "GAL COSTA"
    INDEX 01 00:00:00
Лог проверки качества
AUDIOCHECKER v2.0 beta (build 457) - by Dester - opdester@freemail.hu
~~~~~~~~~~~~~~~~~~~~~~~~~~~~~~~~~~
Started at: суббота, 31. 10. 2015. - 10:19.30
9 files found
1 -===- F:\ЯЯЯЯ\Gal Costa - India\1 India GAL COSTA.flac
Error while extracting! Check your rights, free some space if needed and ensure the file is valid.
2 -===- F:\ЯЯЯЯ\Gal Costa - India\2 Milho Verde (folclore portugues) GAL COSTA.flac
Error while extracting! Check your rights, free some space if needed and ensure the file is valid.
3 -===- F:\ЯЯЯЯ\Gal Costa - India\3 Presente Cotidiano GAL COSTA.flac
Extracted successfully
Conclusion: this track is CDDA with probability 100%
Tempfile successfully deleted.
4 -===- F:\ЯЯЯЯ\Gal Costa - India\4 Volta GAL COSTA.flac
Extracted successfully
Conclusion: this track is CDDA with probability 100%
Tempfile successfully deleted.
5 -===- F:\ЯЯЯЯ\Gal Costa - India\5 Relance GAL COSTA.flac
Extracted successfully
Conclusion: this track is CDDA with probability 100%
Tempfile successfully deleted.
6 -===- F:\ЯЯЯЯ\Gal Costa - India\6 Da Maior Importancia GAL COSTA.flac
Error while extracting! Check your rights, free some space if needed and ensure the file is valid.
7 -===- F:\ЯЯЯЯ\Gal Costa - India\7 Passarinho GAL COSTA.flac
Extracted successfully
Conclusion: this track is CDDA with probability 100%
Tempfile successfully deleted.
8 -===- F:\ЯЯЯЯ\Gal Costa - India\8 Pontos De Luz GAL COSTA.flac
Extracted successfully
Conclusion: this track is CDDA with probability 100%
Tempfile successfully deleted.
9 -===- F:\ЯЯЯЯ\Gal Costa - India\9 Desafinado GAL COSTA.flac
Extracted successfully
Conclusion: this track is MPEG with probability 95%
Tempfile successfully deleted.
Finished at: суббота, 31. 10. 2015. - 10:21.30 (operation time: 0:01.59)
19:48
584
Нет комментариев. Ваш будет первым!