Поиск

(Tzadik, World Fusion) [CD] Forro in the Dark - Forro Zinho: Forro in the Dark Plays John Zorn - 2015, FLAC (tracks+.cue), lossless

(Tzadik, World Fusion) [CD] Forro in the Dark - Forro Zinho: Forro in the Dark Plays John Zorn - 2015, FLAC (tracks+.cue), lossless
Треклист:
Forro Zinho
Forro in the Dark Plays ZORN
Жанр: World Fusion
Страна-производитель диска: USA
Год издания: 2015
Издатель (лейбл): Tzadik
Номер по каталогу: TZA-8334
Страна исполнителя (группы): Brazil
Аудиокодек: FLAC (*.flac)
Тип рипа: tracks+.cue
Битрейт аудио: lossless
Продолжительность: 40:45
Источник (релизер): спасибо BadMusic
Наличие сканов: да
Треклист:
1. Uluwati
2. Novato
3. Forro Zihno
4. Life Is Real Only Then When "I Am"
5. Shaolin Bossa
6. Sunset Surfer
7. Zavebe
8. Ode To Delphi
9. Tempo De Festa
10. Annabel
11. The Quiet Surf
 
Лог создания рипа
Exact Audio Copy V1.1 from 23. June 2015
EAC extraction logfile from 15. October 2015, 21:01
John Zorn / Forro Zinho - Forro In The Dark Plays Zorn
Used drive : TSSTcorpCDDVDW SE-208DB Adapter: 7 ID: 0
Read mode : Secure
Utilize accurate stream : Yes
Defeat audio cache : Yes
Make use of C2 pointers : No
Read offset correction : 6
Overread into Lead-In and Lead-Out : No
Fill up missing offset samples with silence : Yes
Delete leading and trailing silent blocks : No
Null samples used in CRC calculations : Yes
Used interface : Installed external ASPI interface
Gap handling : Appended to previous track
Used output format : User Defined Encoder
Selected bitrate : 1024 kBit/s
Quality : High
Add ID3 tag : No
Command line compressor : C:\Program Files (x86)\FLAC Frontend\tools\flac.exe
Additional command line options : -8 -V -T "ARTIST=%artist%" -T "TITLE=%title%" -T "ALBUM=%albumtitle%" -T "DATE=%year%" -T "TRACKNUMBER=%tracknr%" -T "TOTALTRACKS=%numtracks%" -T "GENRE=%genre%" -T "ALBUMARTIST=%albumartist%" -T "ALBUM ARTIST=%albumartist%" -T "COMMENT=EAC Secure Mode, Test & Copy, AccurateRip, FLAC -8" %source%
TOC of the extracted CD
Track | Start | Length | Start sector | End sector
---------------------------------------------------------
1 | 0:00.00 | 3:31.40 | 0 | 15864
2 | 3:31.40 | 3:42.61 | 15865 | 32575
3 | 7:14.26 | 5:03.09 | 32576 | 55309
4 | 12:17.35 | 2:46.24 | 55310 | 67783
5 | 15:03.59 | 3:21.38 | 67784 | 82896
6 | 18:25.22 | 3:13.39 | 82897 | 97410
7 | 21:38.61 | 4:44.74 | 97411 | 118784
8 | 26:23.60 | 4:28.70 | 118785 | 138954
9 | 30:52.55 | 4:36.69 | 138955 | 159723
10 | 35:29.49 | 2:01.66 | 159724 | 168864
11 | 37:31.40 | 3:13.52 | 168865 | 183391
Track 1
Filename M:\_EAC\John Zorn - Forro Zinho. Forro In The Dark Plays Zorn (2015) [FLAC] {Tzadik TZ 8334}\01 - Uluwati.wav
Pre-gap length 0:00:02.00
Peak level 98.7 %
Extraction speed 1.0 X
Track quality 100.0 %
Test CRC 6639C687
Copy CRC 6639C687
Track not present in AccurateRip database
Copy OK
Track 2
Filename M:\_EAC\John Zorn - Forro Zinho. Forro In The Dark Plays Zorn (2015) [FLAC] {Tzadik TZ 8334}\02 - Novato.wav
Peak level 97.3 %
Extraction speed 1.1 X
Track quality 100.0 %
Test CRC 03C975E5
Copy CRC 03C975E5
Track not present in AccurateRip database
Copy OK
Track 3
Filename M:\_EAC\John Zorn - Forro Zinho. Forro In The Dark Plays Zorn (2015) [FLAC] {Tzadik TZ 8334}\03 - Forro Zinho.wav
Peak level 97.9 %
Extraction speed 1.1 X
Track quality 99.9 %
Test CRC A8E3E72D
Copy CRC A8E3E72D
Track not present in AccurateRip database
Copy OK
Track 4
Filename M:\_EAC\John Zorn - Forro Zinho. Forro In The Dark Plays Zorn (2015) [FLAC] {Tzadik TZ 8334}\04 - Life Is Real Only Then When ''I Am''.wav
Peak level 99.4 %
Extraction speed 1.0 X
Track quality 99.9 %
Test CRC 2AC6F6AB
Copy CRC 2AC6F6AB
Track not present in AccurateRip database
Copy OK
Track 5
Filename M:\_EAC\John Zorn - Forro Zinho. Forro In The Dark Plays Zorn (2015) [FLAC] {Tzadik TZ 8334}\05 - Shaolin Bossa.wav
Peak level 99.3 %
Extraction speed 1.1 X
Track quality 99.9 %
Test CRC 41F683A4
Copy CRC 41F683A4
Track not present in AccurateRip database
Copy OK
Track 6
Filename M:\_EAC\John Zorn - Forro Zinho. Forro In The Dark Plays Zorn (2015) [FLAC] {Tzadik TZ 8334}\06 - Sunset Surfer.wav
Peak level 98.8 %
Extraction speed 1.1 X
Track quality 99.9 %
Test CRC 88D5ACCC
Copy CRC 88D5ACCC
Track not present in AccurateRip database
Copy OK
Track 7
Filename M:\_EAC\John Zorn - Forro Zinho. Forro In The Dark Plays Zorn (2015) [FLAC] {Tzadik TZ 8334}\07 - Zavebe.wav
Peak level 100.0 %
Extraction speed 1.5 X
Track quality 100.0 %
Test CRC B65D4FA1
Copy CRC B65D4FA1
Track not present in AccurateRip database
Copy OK
Track 8
Filename M:\_EAC\John Zorn - Forro Zinho. Forro In The Dark Plays Zorn (2015) [FLAC] {Tzadik TZ 8334}\08 - Ode To Delphi.wav
Peak level 97.8 %
Extraction speed 1.3 X
Track quality 99.9 %
Test CRC D426CC3D
Copy CRC D426CC3D
Track not present in AccurateRip database
Copy OK
Track 9
Filename M:\_EAC\John Zorn - Forro Zinho. Forro In The Dark Plays Zorn (2015) [FLAC] {Tzadik TZ 8334}\09 - Tempo De Festa.wav
Peak level 99.2 %
Extraction speed 1.6 X
Track quality 100.0 %
Test CRC 6C52C333
Copy CRC 6C52C333
Track not present in AccurateRip database
Copy OK
Track 10
Filename M:\_EAC\John Zorn - Forro Zinho. Forro In The Dark Plays Zorn (2015) [FLAC] {Tzadik TZ 8334}\10 - Annabel.wav
Peak level 100.0 %
Extraction speed 1.4 X
Track quality 100.0 %
Test CRC 30A8AB84
Copy CRC 30A8AB84
Track not present in AccurateRip database
Copy OK
Track 11
Filename M:\_EAC\John Zorn - Forro Zinho. Forro In The Dark Plays Zorn (2015) [FLAC] {Tzadik TZ 8334}\11 - The Quiet Surf.wav
Peak level 93.8 %
Extraction speed 1.6 X
Track quality 100.0 %
Test CRC D78585B2
Copy CRC D78585B2
Track not present in AccurateRip database
Copy OK
None of the tracks are present in the AccurateRip database
No errors occurred
End of status report
==== Log checksum FBC9D65E105CCBE173302D9C1D1ED6C0E395D67AFA70C730DAE2B6A91299F0A7 ====
 
Содержание индексной карты (.CUE)
REM GENRE Jazz
REM DATE 2015
REM DISCID 7B098D0B
REM COMMENT "ExactAudioCopy v1.1"
PERFORMER "John Zorn"
TITLE "Forro Zinho - Forro In The Dark Plays Zorn"
FILE "01 - Uluwati.wav" WAVE
TRACK 01 AUDIO
TITLE "Uluwati"
PERFORMER "John Zorn"
FLAGS DCP
INDEX 01 00:00:00
FILE "02 - Novato.wav" WAVE
TRACK 02 AUDIO
TITLE "Novato"
PERFORMER "John Zorn"
FLAGS DCP
INDEX 01 00:00:00
FILE "03 - Forro Zinho.wav" WAVE
TRACK 03 AUDIO
TITLE "Forro Zinho"
PERFORMER "John Zorn"
FLAGS DCP
INDEX 01 00:00:00
FILE "04 - Life Is Real Only Then When ''I Am''.wav" WAVE
TRACK 04 AUDIO
TITLE "Life Is Real Only Then When 'I Am'"
PERFORMER "John Zorn"
FLAGS DCP
INDEX 01 00:00:00
FILE "05 - Shaolin Bossa.wav" WAVE
TRACK 05 AUDIO
TITLE "Shaolin Bossa"
PERFORMER "John Zorn"
FLAGS DCP
INDEX 01 00:00:00
FILE "06 - Sunset Surfer.wav" WAVE
TRACK 06 AUDIO
TITLE "Sunset Surfer"
PERFORMER "John Zorn"
FLAGS DCP
INDEX 01 00:00:00
FILE "07 - Zavebe.wav" WAVE
TRACK 07 AUDIO
TITLE "Zavebe"
PERFORMER "John Zorn"
FLAGS DCP
INDEX 01 00:00:00
FILE "08 - Ode To Delphi.wav" WAVE
TRACK 08 AUDIO
TITLE "Ode To Delphi"
PERFORMER "John Zorn"
FLAGS DCP
INDEX 01 00:00:00
FILE "09 - Tempo De Festa.wav" WAVE
TRACK 09 AUDIO
TITLE "Tempo De Festa"
PERFORMER "John Zorn"
FLAGS DCP
INDEX 01 00:00:00
FILE "10 - Annabel.wav" WAVE
TRACK 10 AUDIO
TITLE "Annabel"
PERFORMER "John Zorn"
FLAGS DCP
INDEX 01 00:00:00
FILE "11 - The Quiet Surf.wav" WAVE
TRACK 11 AUDIO
TITLE "The Quiet Surf"
PERFORMER "John Zorn"
FLAGS DCP
INDEX 01 00:00:00
 
Об альбоме
The music of John Zorn has been performed by Tzadik’s “house” musicians for so long that whatever personal idiosyncrasies the musicians bring to the sessions end up being a foregone conclusion. So it’s up to a band like Forro in the Dark to remind us that, when performed by a different group of people, the music of a composer like John Zorn can be fully realized in an entirely different way.
Of course, I’m not knocking Tzadik preferred roster of New York’s Downtown musicians. Performers such as Mark Feldman, Uri Caine, and Cyro Baptista, trained in classical and jazz, can always be counted on for bringing a certain level of musicianship to a John Zorn recording session. You could go so far as to say that you are guaranteed consistently good results from their performances each and every time. Be it rock, klezmer jazz, or chamber 12-tone classical, Tzadik’s usual suspects give priority to the compositions themselves. Forro in the Dark, a band signaling the “Nublu” scene, has a different agenda. With Forro Zinho: Forro in the Dark Plays Zorn, this 7-piece group takes a small slice of Zorn’s repertoire and feeds it through the Brazilian wringer. The music comes out light and peppy while managing to maintain the Jewish-tinged melodies that make it catchy as hell.
Transporting Zorn’s melodies into Forro in the Dark’s Brazilian sounds give them all a surf tinge, a by-product that the composer probably has no problem with. The album’s final song “The Quiet Surf” comes from The Gift, a very low-key and beautiful album that allowed John Zorn to write for a particular ensemble that would later become The Dreamers. Naked City was the composer’s excuse to write punk crossed with speed and Forro in the Dark’s cover of “Sunset Surfer” represents Naked City’s last-ditch efforts to branch out in sound before Zorn stopped writing material for them. In these moments, the water quietly laps at the shore as if a Brazilian band in New York covering Jewish jazz were the most naturally tropical thing in the world. And sometimes, all it takes is a different musician to use the same instrument to place a different emphasis on a different moment in the same score to let a whole other flower bloom for your enjoyment. For me, this comes on the cover of The Goddess: Music for the Ancient of Days‘s “Ode to Delphi”. If I were to exclaim “how sweet it is!”, then I would have to explain exactly what “it” is. This “it” is when a melody worms out of a set of speakers, no matter how big or how small, and the heart and mind can simultaneously exhale a pleasant “ah…” The siesta’s over when the band strikes up “Tempo de Festa”, a blistering south-of-the-border stomp that gives Zorn’s repertoire an unexpected smack.
It all kind of reminds me of a scene in Work Series: Musician, a documentary that follows Chicago saxophonist Ken Vandermark on his various gigging and composing adventures. During a Q&A session, someone asked Vandermark if he would like to hear his music covered by others. His answer was a lengthy yes, and it got me thinking Why haven’t more people covered Ken Vandermark? He has an enormous catalog, so someone should go for it. Well, John Zorn has an even bigger catalog of music and only a small number of artists outside the tightly-packed Tzadik circle actually seem to be up to the task. Forro Zinho: Forro in the Dark Plays Zorn makes the case that this shouldn’t be an exception. This is terrain meant not only to be explored but to be turned over, ripped up, stitched together, and poked at with a stick until something new takes shape. Will the music of John Zorn hold up against such repeated treatments? We’ll never know if we never try.
 
Состав

Mauro Refosco - Zabumba, Vibes, Synare, Percussion
Jorge Continentino - Pífanos, Flutes, Vocals, Tenor & Baritone Saxes
Guilherme Monteiro - Electric Guitar
with
Rea Mochiach - bass, percussion, fun machine
Vitor Gonçalves - accordion (2, 3, 9)
Sofia Rei - vocals (8, 11)
Jesse Harris - vocals (8), whistling (4)
Marcos Valle - vocals & Wurlitzer (5)
19:49
356
Нет комментариев. Ваш будет первым!