Поиск

(World Fusion, Ethnic Jazz) Maria Bethania - As Cancoes Que Voce Fez Pra Mim - 1993, FLAC (tracks+.cue), lossless

(World Fusion, Ethnic Jazz) Maria Bethania - As Cancoes Que Voce Fez Pra Mim - 1993, FLAC (tracks+.cue), lossless
Треклист:
Maria Bethania / As Cancoes Que Voce Fez Pra Mim
Жанр: World Fusion, Ethnic Jazz
Год издания: 1993
Страна исполнителя (группы): Brazil
Аудиокодек: FLAC (*.flac)
Тип рипа:tracks+.cue
Битрейт аудио: lossless
Продолжительность: 00:41:50
Источник (релизер): сеть
Наличие сканов в содержимом раздачи: да
Треклист:
1. As Canções Que Você Fez Pra Mim (03:43)
2. Olha (03:39)
3. Fera Ferida (03:27)
4. Palavras (04:35)
5. Costumes (02:50)
6. Detalhes (05:05)
7. Você Não Sabe (03:10)
8. Eu Preciso De Você (04:09)
9. Seu Corpo (04:01)
10. Você (02:57)
11. Emocoes (04:13)
 
Лог создания рипа
Exact Audio Copy V1.1 from 23. June 2015
EAC extraction logfile from 16. August 2015, 13:14
Maria Bethania / As Cancoes Que Voce Fez Pra Mim
Used drive : HL-DT-STDVDRAM GA50N Adapter: 1 ID: 0
Read mode : Secure
Utilize accurate stream : Yes
Defeat audio cache : No
Make use of C2 pointers : No
Read offset correction : 6
Overread into Lead-In and Lead-Out : No
Fill up missing offset samples with silence : Yes
Delete leading and trailing silent blocks : No
Null samples used in CRC calculations : Yes
Used interface : Native Win32 interface for Win NT & 2000
Gap handling : Not detected, thus appended to previous track
Used output format : User Defined Encoder
Selected bitrate : 768 kBit/s
Quality : High
Add ID3 tag : No
Command line compressor : C:\Program Files (x86)\Exact Audio Copy\FLAC\FLAC.EXE
Additional command line options : -6 -V -T "ARTIST=%artist%" -T "TITLE=%title%" -T "ALBUM=%albumtitle%" -T "DATE=%year%" -T "TRACKNUMBER=%tracknr%" -T "GENRE=%genre%" -T "COMMENT=%comment%" -T "BAND=%albuminterpret%" -T "ALBUMARTIST=%albuminterpret%" -T "COMPOSER=%composer%" %haslyrics%--tag-from-file=LYRICS="%lyricsfile%"%haslyrics% -T "DISCNUMBER=%cdnumber%" -T "TOTALDISCS=%totalcds%" -T "TOTALTRACKS=%numtracks%" %hascover%--picture="%coverfile%"%hascover% %source% -o %dest%
TOC of the extracted CD
Track | Start | Length | Start sector | End sector
---------------------------------------------------------
1 | 0:00.00 | 3:43.20 | 0 | 16744
2 | 3:43.20 | 3:39.27 | 16745 | 33196
3 | 7:22.47 | 3:26.70 | 33197 | 48716
4 | 10:49.42 | 4:34.40 | 48717 | 69306
5 | 15:24.07 | 2:50.00 | 69307 | 82056
6 | 18:14.07 | 5:05.15 | 82057 | 104946
7 | 23:19.22 | 3:09.70 | 104947 | 119191
8 | 26:29.17 | 4:09.18 | 119192 | 137884
9 | 30:38.35 | 4:01.27 | 137885 | 155986
10 | 34:39.62 | 2:57.23 | 155987 | 169284
11 | 37:37.10 | 4:13.04 | 169285 | 188263
Track 1
Filename E:\MY EAC[.FLAC]\Maria Bethania - As Cacoes que voce fez pra mim\1 As Cancoes Que Voce Fez Pra Mim Maria Bethania.flac
Peak level 99.0 %
Extraction speed 2.0 X
Track quality 100.0 %
Test CRC 3A620CB6
Copy CRC 3A620CB6
Accurately ripped (confidence 1) [1FBD8A93] (AR v2)
Copy OK
Track 2
Filename E:\MY EAC[.FLAC]\Maria Bethania - As Cacoes que voce fez pra mim\2 Olha Maria Bethania.flac
Peak level 100.0 %
Extraction speed 2.2 X
Track quality 100.0 %
Test CRC F23EB9E1
Copy CRC F23EB9E1
Accurately ripped (confidence 1) [BAC813D4] (AR v2)
Copy OK
Track 3
Filename E:\MY EAC[.FLAC]\Maria Bethania - As Cacoes que voce fez pra mim\3 Fera Ferida Maria Bethania.flac
Peak level 100.0 %
Extraction speed 2.4 X
Track quality 100.0 %
Test CRC B4B59232
Copy CRC B4B59232
Accurately ripped (confidence 1) [98D8BBA4] (AR v2)
Copy OK
Track 4
Filename E:\MY EAC[.FLAC]\Maria Bethania - As Cacoes que voce fez pra mim\4 Palavras Maria Bethania.flac
Peak level 100.0 %
Extraction speed 2.6 X
Track quality 99.9 %
Test CRC F0AD619F
Copy CRC F0AD619F
Accurately ripped (confidence 1) [94C3DD3B] (AR v2)
Copy OK
Track 5
Filename E:\MY EAC[.FLAC]\Maria Bethania - As Cacoes que voce fez pra mim\5 Costumes Maria Bethania.flac
Peak level 94.2 %
Extraction speed 2.7 X
Track quality 99.9 %
Test CRC C79213B6
Copy CRC C79213B6
Accurately ripped (confidence 1) [B6A5D74B] (AR v2)
Copy OK
Track 6
Filename E:\MY EAC[.FLAC]\Maria Bethania - As Cacoes que voce fez pra mim\6 Detalhes Maria Bethania.flac
Peak level 100.0 %
Extraction speed 3.0 X
Track quality 100.0 %
Test CRC EA9A92EF
Copy CRC EA9A92EF
Accurately ripped (confidence 1) [FC7FFEA9] (AR v2)
Copy OK
Track 7
Filename E:\MY EAC[.FLAC]\Maria Bethania - As Cacoes que voce fez pra mim\7 Voce Nao Sabe Maria Bethania.flac
Peak level 94.3 %
Extraction speed 3.1 X
Track quality 100.0 %
Test CRC 8AED7946
Copy CRC 8AED7946
Accurately ripped (confidence 1) [BECBB3AA] (AR v2)
Copy OK
Track 8
Filename E:\MY EAC[.FLAC]\Maria Bethania - As Cacoes que voce fez pra mim\8 Eu Preciso De Voce Maria Bethania.flac
Peak level 100.0 %
Extraction speed 3.2 X
Track quality 100.0 %
Test CRC 7AAEF5D3
Copy CRC 7AAEF5D3
Accurately ripped (confidence 1) [4524894B] (AR v2)
Copy OK
Track 9
Filename E:\MY EAC[.FLAC]\Maria Bethania - As Cacoes que voce fez pra mim\9 Seu Corpo Maria Bethania.flac
Peak level 97.9 %
Extraction speed 3.4 X
Track quality 99.9 %
Test CRC 597E12AE
Copy CRC 597E12AE
Accurately ripped (confidence 1) [7AC29EB5] (AR v2)
Copy OK
Track 10
Filename E:\MY EAC[.FLAC]\Maria Bethania - As Cacoes que voce fez pra mim\10 Voce Maria Bethania.flac
Peak level 97.7 %
Extraction speed 3.5 X
Track quality 99.9 %
Test CRC 6CE584CD
Copy CRC 6CE584CD
Accurately ripped (confidence 1) [3EE0E9A5] (AR v2)
Copy OK
Track 11
Filename E:\MY EAC[.FLAC]\Maria Bethania - As Cacoes que voce fez pra mim\11 Emocoes Maria Bethania.flac
Peak level 100.0 %
Extraction speed 3.7 X
Track quality 100.0 %
Test CRC 8B9982BD
Copy CRC 8B9982BD
Accurately ripped (confidence 1) [1EEDD021] (AR v2)
Copy OK
All tracks accurately ripped
No errors occurred
End of status report
==== Log checksum 5C11F7E5B7F12B130DA3202D71562440DE2DCBC54B6C8D792EAF21C7B307DFCE ====
 
Audiochecker log
AUDIOCHECKER v2.0 beta (build 457) - by Dester - opdester@freemail.hu
~~~~~~~~~~~~~~~~~~~~~~~~~~~~~~~~~~
Started at: суббота, 31. 10. 2015. - 11:16.54
11 files found
01 -===- F:\ЯЯЯЯ\Maria Bethania - As Cacoes que voce fez pra mim\1 As Cancoes Que Voce Fez Pra Mim Maria Bethania.flac
Extracted successfully
Conclusion: this track is CDDA with probability 100%
Tempfile successfully deleted.
02 -===- F:\ЯЯЯЯ\Maria Bethania - As Cacoes que voce fez pra mim\2 Olha Maria Bethania.flac
Extracted successfully
Conclusion: this track is CDDA with probability 100%
Tempfile successfully deleted.
03 -===- F:\ЯЯЯЯ\Maria Bethania - As Cacoes que voce fez pra mim\3 Fera Ferida Maria Bethania.flac
Extracted successfully
Conclusion: this track is CDDA with probability 100%
Tempfile successfully deleted.
04 -===- F:\ЯЯЯЯ\Maria Bethania - As Cacoes que voce fez pra mim\4 Palavras Maria Bethania.flac
Extracted successfully
Conclusion: this track is CDDA with probability 100%
Tempfile successfully deleted.
05 -===- F:\ЯЯЯЯ\Maria Bethania - As Cacoes que voce fez pra mim\5 Costumes Maria Bethania.flac
Extracted successfully
Conclusion: this track is CDDA with probability 100%
Tempfile successfully deleted.
06 -===- F:\ЯЯЯЯ\Maria Bethania - As Cacoes que voce fez pra mim\6 Detalhes Maria Bethania.flac
Extracted successfully
Conclusion: this track is CDDA with probability 100%
Tempfile successfully deleted.
07 -===- F:\ЯЯЯЯ\Maria Bethania - As Cacoes que voce fez pra mim\7 Voce Nao Sabe Maria Bethania.flac
Extracted successfully
Conclusion: this track is CDDA with probability 100%
Tempfile successfully deleted.
08 -===- F:\ЯЯЯЯ\Maria Bethania - As Cacoes que voce fez pra mim\8 Eu Preciso De Voce Maria Bethania.flac
Extracted successfully
Conclusion: this track is CDDA with probability 100%
Tempfile successfully deleted.
09 -===- F:\ЯЯЯЯ\Maria Bethania - As Cacoes que voce fez pra mim\9 Seu Corpo Maria Bethania.flac
Extracted successfully
Conclusion: this track is CDDA with probability 100%
Tempfile successfully deleted.
10 -===- F:\ЯЯЯЯ\Maria Bethania - As Cacoes que voce fez pra mim\10 Voce Maria Bethania.flac
Extracted successfully
Conclusion: this track is CDDA with probability 100%
Tempfile successfully deleted.
11 -===- F:\ЯЯЯЯ\Maria Bethania - As Cacoes que voce fez pra mim\11 Emocoes Maria Bethania.flac
Extracted successfully
Conclusion: this track is CDDA with probability 100%
Tempfile successfully deleted.
Finished at: суббота, 31. 10. 2015. - 11:21.00 (operation time: 0:04.06)
 
Содержание индексной карты (.CUE)
REM GENRE MBP
REM DATE 1993
REM DISCID 8409CE0B
REM COMMENT "ExactAudioCopy v1.1"
PERFORMER "Maria Bethania"
TITLE "As Cancoes Que Voce Fez Pra Mim"
FILE "1 As Cancoes Que Voce Fez Pra Mim Maria Bethania.flac" WAVE
TRACK 01 AUDIO
TITLE "As Cancoes Que Voce Fez Pra Mim"
PERFORMER "Maria Bethania"
INDEX 01 00:00:00
FILE "2 Olha Maria Bethania.flac" WAVE
TRACK 02 AUDIO
TITLE "Olha"
PERFORMER "Maria Bethania"
INDEX 01 00:00:00
FILE "3 Fera Ferida Maria Bethania.flac" WAVE
TRACK 03 AUDIO
TITLE "Fera Ferida"
PERFORMER "Maria Bethania"
INDEX 01 00:00:00
FILE "4 Palavras Maria Bethania.flac" WAVE
TRACK 04 AUDIO
TITLE "Palavras"
PERFORMER "Maria Bethania"
INDEX 01 00:00:00
TRACK 05 AUDIO
TITLE "Costumes"
PERFORMER "Maria Bethania"
INDEX 00 04:31:35
FILE "5 Costumes Maria Bethania.flac" WAVE
INDEX 01 00:00:00
TRACK 06 AUDIO
TITLE "Detalhes"
PERFORMER "Maria Bethania"
INDEX 00 02:48:30
FILE "6 Detalhes Maria Bethania.flac" WAVE
INDEX 01 00:00:00
TRACK 07 AUDIO
TITLE "Voce Nao Sabe"
PERFORMER "Maria Bethania"
INDEX 00 05:02:35
FILE "7 Voce Nao Sabe Maria Bethania.flac" WAVE
INDEX 01 00:00:00
TRACK 08 AUDIO
TITLE "Eu Preciso De Voce"
PERFORMER "Maria Bethania"
INDEX 00 03:08:65
FILE "8 Eu Preciso De Voce Maria Bethania.flac" WAVE
INDEX 01 00:00:00
TRACK 09 AUDIO
TITLE "Seu Corpo"
PERFORMER "Maria Bethania"
INDEX 00 04:07:55
FILE "9 Seu Corpo Maria Bethania.flac" WAVE
INDEX 01 00:00:00
TRACK 10 AUDIO
TITLE "Voce"
PERFORMER "Maria Bethania"
INDEX 00 04:00:25
FILE "10 Voce Maria Bethania.flac" WAVE
INDEX 01 00:00:00
TRACK 11 AUDIO
TITLE "Emocoes"
PERFORMER "Maria Bethania"
INDEX 00 02:56:15
FILE "11 Emocoes Maria Bethania.flac" WAVE
INDEX 01 00:00:00
19:47
317
Нет комментариев. Ваш будет первым!