Поиск

(Latin Jazz, Bossa Nova, Vocal Jazz) Rosalia de Souza - Garota Moderna - 2003, FLAC (tracks+.cue), lossless

Треклист:
Rosalia de Souza - Garota Moderna
Жанр: Latin Jazz, Bossa Nova, Vocal Jazz
Год выпуска диска: 2003
Производитель диска: Италия (Shema Records)
Аудио кодек: FLAC
Тип рипа: tracks+.cue
Битрейт аудио: lossless
Продолжительность: 61.38
Трэклист:
1. Rosalia de Souza - Maria Moita (5:16)
2. Rosalia de Souza - Bossa 31 (5:45)
3. Rosalia de Souza - Adriana (2:32)
4. Rosalia de Souza - Tempo Futuro (4:38)
5. Rosalia de Souza - Saudosismo (4:22)
6. Rosalia de Souza - Canto De Ossanha (5:26)
7. Rosalia de Souza - Fica Mal Com Deus (3:44)
8. Rosalia de Souza - Mais (4:43)
9. Rosalia de Souza - As Gotas (3:41)
10. Rosalia de Souza - Mar Azul (3:31)
11. Rosalia de Souza - Ipanema (3:49)
12. Rosalia de Souza - Zona Sul (7:15)
13. Rosalia de Souza - Samba Novo (6:49)
.
Приятный во всех отношениях альбом из серии Nicola Conte apresenta - Rosalia de Souza "Garota Moderna", альбом 2003 года выпуска.
Пред.прослушивание - SC 333 CD/2LP Rosalia de Souza / Garota Moderna
 
Audiochecker лог
Started at: четверг, 21. 01. 2010. - 13:54.09
13 files found
01 -===- D:\tor.ru\music\Rosalia De Souza.SHEMArec.2003 [FLAC]\01. Rosalia de Souza – Maria Moita.flac
Extracted successfully
Conclusion: this track is CDDA with probability 100%
Tempfile successfully deleted.
02 -===- D:\tor.ru\music\Rosalia De Souza.SHEMArec.2003 [FLAC]\02. Rosalia de Souza – Bossa 31.flac
Extracted successfully
Conclusion: this track is CDDA with probability 100%
Tempfile successfully deleted.
03 -===- D:\tor.ru\music\Rosalia De Souza.SHEMArec.2003 [FLAC]\03. Rosalia de Souza – Adriana.flac
Extracted successfully
Conclusion: this track is CDDA with probability 100%
Tempfile successfully deleted.
04 -===- D:\tor.ru\music\Rosalia De Souza.SHEMArec.2003 [FLAC]\04. Rosalia de Souza – Tempo Futuro.flac
Extracted successfully
Conclusion: this track is CDDA with probability 100%
Tempfile successfully deleted.
05 -===- D:\tor.ru\music\Rosalia De Souza.SHEMArec.2003 [FLAC]\05. Rosalia de Souza – Saudosismo.flac
Extracted successfully
Conclusion: this track is CDDA with probability 100%
Tempfile successfully deleted.
06 -===- D:\tor.ru\music\Rosalia De Souza.SHEMArec.2003 [FLAC]\06. Rosalia de Souza – Canto De Ossanha.flac
Extracted successfully
Conclusion: this track is CDDA with probability 100%
Tempfile successfully deleted.
07 -===- D:\tor.ru\music\Rosalia De Souza.SHEMArec.2003 [FLAC]\07. Rosalia de Souza – Fica Mal Com Deus.flac
Extracted successfully
Conclusion: this track is CDDA with probability 100%
Tempfile successfully deleted.
08 -===- D:\tor.ru\music\Rosalia De Souza.SHEMArec.2003 [FLAC]\08. Rosalia de Souza – Mais.flac
Extracted successfully
Conclusion: this track is CDDA with probability 100%
Tempfile successfully deleted.
09 -===- D:\tor.ru\music\Rosalia De Souza.SHEMArec.2003 [FLAC]\09. Rosalia de Souza – As Gotas.flac
Extracted successfully
Conclusion: this track is CDDA with probability 100%
Tempfile successfully deleted.
10 -===- D:\tor.ru\music\Rosalia De Souza.SHEMArec.2003 [FLAC]\10. Rosalia de Souza – Mar Azul.flac
Extracted successfully
Conclusion: this track is CDDA with probability 100%
Tempfile successfully deleted.
11 -===- D:\tor.ru\music\Rosalia De Souza.SHEMArec.2003 [FLAC]\11. Rosalia de Souza – Ipanema.flac
Extracted successfully
Conclusion: this track is CDDA with probability 100%
Tempfile successfully deleted.
12 -===- D:\tor.ru\music\Rosalia De Souza.SHEMArec.2003 [FLAC]\12. Rosalia de Souza – Zona Sul.flac
Extracted successfully
Conclusion: this track is CDDA with probability 100%
Tempfile successfully deleted.
13 -===- D:\tor.ru\music\Rosalia De Souza.SHEMArec.2003 [FLAC]\13. Rosalia de Souza – Samba Novo.flac
Extracted successfully
Conclusion: this track is CDDA with probability 100%
Tempfile successfully deleted.
Finished at: четверг, 21. 01. 2010. - 14:06.13 (operation time: 0:12.03)
 
EAC лог
Exact Audio Copy V0.99 prebeta 5 from 4. May 2009
EAC extraction logfile from 21. January 2010, 13:05
Rosalia de Souza / Garota Moderna
Used drive : _NEC DVD_RW ND-3540A Adapter: 5 ID: 0
Read mode : Secure
Utilize accurate stream : Yes
Defeat audio cache : Yes
Make use of C2 pointers : No
Read offset correction : 48
Overread into Lead-In and Lead-Out : No
Fill up missing offset samples with silence : Yes
Delete leading and trailing silent blocks : No
Null samples used in CRC calculations : Yes
Used interface : Native Win32 interface for Win NT & 2000
Gap handling : Appended to previous track
Used output format : User Defined Encoder
Selected bitrate : 128 kBit/s
Quality : High
Add ID3 tag : No
Command line compressor : C:\Program Files\Audio Tools\Exact Audio Copy\FLAC\FLAC.EXE
Additional command line options : -8 -V -T "ARTIST=%a" -T "TITLE=%t" -T "ALBUM=%g" -T "DATE=%y" -T "TRACKNUMBER=%n" -T "GENRE=%m" -T "COMMENT=EAC FLAC -8" %s
TOC of the extracted CD
Track | Start | Length | Start sector | End sector
---------------------------------------------------------
1 | 0:00.00 | 5:16.16 | 0 | 23715
2 | 5:16.16 | 5:45.53 | 23716 | 49643
3 | 11:01.69 | 2:32.22 | 49644 | 61065
4 | 13:34.16 | 4:38.32 | 61066 | 81947
5 | 18:12.48 | 4:22.71 | 81948 | 101668
6 | 22:35.44 | 5:26.53 | 101669 | 126171
7 | 28:02.22 | 3:44.29 | 126172 | 143000
8 | 31:46.51 | 4:43.05 | 143001 | 164230
9 | 36:29.56 | 3:41.52 | 164231 | 180857
10 | 40:11.33 | 3:31.42 | 180858 | 196724
11 | 43:43.00 | 3:49.39 | 196725 | 213938
12 | 47:32.39 | 7:15.60 | 213939 | 246623
13 | 54:48.24 | 6:49.00 | 246624 | 277298
Track 1
Filename D:\tor.ru\music\Rosalia De Souza.SHEMArec.2003 [FLAC]\01. Rosalia de Souza – Maria Moita.wav
Pre-gap length 0:00:02.00
Peak level 94.0 %
Track quality 100.0 %
Test CRC 740B1314
Copy CRC 740B1314
Copy OK
Track 2
Filename D:\tor.ru\music\Rosalia De Souza.SHEMArec.2003 [FLAC]\02. Rosalia de Souza – Bossa 31.wav
Peak level 94.0 %
Track quality 100.0 %
Test CRC BE7C26A9
Copy CRC BE7C26A9
Copy OK
Track 3
Filename D:\tor.ru\music\Rosalia De Souza.SHEMArec.2003 [FLAC]\03. Rosalia de Souza – Adriana.wav
Peak level 94.0 %
Track quality 100.0 %
Test CRC F199D786
Copy CRC F199D786
Copy OK
Track 4
Filename D:\tor.ru\music\Rosalia De Souza.SHEMArec.2003 [FLAC]\04. Rosalia de Souza – Tempo Futuro.wav
Peak level 94.0 %
Track quality 100.0 %
Test CRC 749EF3B1
Copy CRC 749EF3B1
Copy OK
Track 5
Filename D:\tor.ru\music\Rosalia De Souza.SHEMArec.2003 [FLAC]\05. Rosalia de Souza – Saudosismo.wav
Peak level 94.0 %
Track quality 100.0 %
Test CRC C780DC10
Copy CRC C780DC10
Copy OK
Track 6
Filename D:\tor.ru\music\Rosalia De Souza.SHEMArec.2003 [FLAC]\06. Rosalia de Souza – Canto De Ossanha.wav
Peak level 94.0 %
Track quality 100.0 %
Test CRC F1F4EA8D
Copy CRC F1F4EA8D
Copy OK
Track 7
Filename D:\tor.ru\music\Rosalia De Souza.SHEMArec.2003 [FLAC]\07. Rosalia de Souza – Fica Mal Com Deus.wav
Peak level 94.0 %
Track quality 100.0 %
Test CRC B67B4153
Copy CRC B67B4153
Copy OK
Track 8
Filename D:\tor.ru\music\Rosalia De Souza.SHEMArec.2003 [FLAC]\08. Rosalia de Souza – Mais.wav
Peak level 94.0 %
Track quality 100.0 %
Test CRC 1D2A613D
Copy CRC 1D2A613D
Copy OK
Track 9
Filename D:\tor.ru\music\Rosalia De Souza.SHEMArec.2003 [FLAC]\09. Rosalia de Souza – As Gotas.wav
Peak level 94.0 %
Track quality 100.0 %
Test CRC 6FAD6CDE
Copy CRC 6FAD6CDE
Copy OK
Track 10
Filename D:\tor.ru\music\Rosalia De Souza.SHEMArec.2003 [FLAC]\10. Rosalia de Souza – Mar Azul.wav
Peak level 93.2 %
Track quality 100.0 %
Test CRC 96418A49
Copy CRC 96418A49
Copy OK
Track 11
Filename D:\tor.ru\music\Rosalia De Souza.SHEMArec.2003 [FLAC]\11. Rosalia de Souza – Ipanema.wav
Peak level 94.0 %
Track quality 100.0 %
Test CRC FF1C16F5
Copy CRC FF1C16F5
Copy OK
Track 12
Filename D:\tor.ru\music\Rosalia De Souza.SHEMArec.2003 [FLAC]\12. Rosalia de Souza – Zona Sul.wav
Peak level 94.0 %
Track quality 100.0 %
Test CRC A1A539E0
Copy CRC A1A539E0
Copy OK
Track 13
Filename D:\tor.ru\music\Rosalia De Souza.SHEMArec.2003 [FLAC]\13. Rosalia de Souza – Samba Novo.wav
Peak level 94.0 %
Track quality 100.0 %
Test CRC 3F5CA2BF
Copy CRC 3F5CA2BF
Copy OK
No tracks could be verified as accurate
You may have a different pressing from the one(s) in the database
No errors occurred
End of status report
Пожалуйста, не стесняйтесь выражать благодарность, в свою очередь и я буду Вам признателен. Спасибо.
Download available for power users only.
11:00
434
Нет комментариев. Ваш будет первым!