Поиск

(Brazilian Jazz, Bossa) Ana Caram - The Other Side of Jobim - 1992, FLAC (image+.cue), lossless

(Brazilian Jazz, Bossa) Ana Caram - The Other Side of Jobim - 1992, FLAC (image+.cue), lossless
Треклист:
Ana Caram - The Other Side of Jobim
Жанр: Brazilian Jazz, Bossa
Год выпуска диска: 1992
Производитель диска: Chesky Records, USA (JD73)
Аудио кодек: FLAC
Тип рипа: image+.cue +scans (300 dpi)
Битрейт аудио: lossless
Продолжительность: 51:15
Треклист:
01. Esperanca Perdida................ 04:43
02. Olha Maria........................... 04:00
03. Demais................................ 06:28
04. Ana Luiza............................ 05:47
05. Correnteza........................... 04:45
06. Sem Voce............................ 03:39
07. Falando de Amor...................03:16
08. Samba Torto.........................03:35
09. Eu Te Amo...........................05:04
10. Caminhos Cruzados..............05:28
11. Eu Nao Existo Sem Voce.......04:04
Доп. информация:
 
Отчет EAC
Exact Audio Copy V0.99 prebeta 3 from 28. July 2007
Отчёт EAC об извлечении, выполненном 21. января 2010, 20:47
Ana Caram / The Other Side of Jobim - Chesky 1992
Дисковод: PLEXTOR DVDR PX-716A Adapter: 4 ID: 0
Режим чтения : Достоверность
Использование точного потока : Да
Отключение кэша аудио : Да
Использование указателей C2 : Нет
Коррекция смещения при чтении : 30
Способность читать области Lead-in и Lead-out : Да
Заполнение пропущенных сэмплов тишиной : Да
Удаление блоков с тишиной в начале и конце : Нет
При вычислениях CRC использовались нулевые сэмплы : Да
Интерфейс : Установленный внешний ASPI-интерфейс
Выходной формат : Внутренние WAV-операции
Формат сэмплов : 44.100 Гц; 16 бит; стерео
TOC извлечённого CD
Трек | Старт | Длительность | Начальный сектор | Конечный сектор
---------------------------------------------------------------------
1 | 0:00.00 | 4:46.15 | 0 | 21464
2 | 4:46.15 | 4:03.30 | 21465 | 39719
3 | 8:49.45 | 6:30.70 | 39720 | 69039
4 | 15:20.40 | 5:49.30 | 69040 | 95244
5 | 21:09.70 | 4:47.32 | 95245 | 116801
6 | 25:57.27 | 3:41.58 | 116802 | 133434
7 | 29:39.10 | 3:18.50 | 133435 | 148334
8 | 32:57.60 | 3:38.05 | 148335 | 164689
9 | 36:35.65 | 5:05.02 | 164690 | 187566
10 | 41:40.67 | 5:29.65 | 187567 | 212306
11 | 47:10.57 | 4:04.45 | 212307 | 230651
Характеристики диапазона извлечения и сообщения об ошибках
Выбранный диапазон
Имя файла C:\Temp\Ana Caram - The Other Side of Jobim - Chesky 1992.wav
Пиковый уровень 61.2 %
Качество диапазона 100.0 %
CRC копии F815FEEF
Копирование... OK
Ошибок не произошло
Конец отчёта
 
скрытый текст
По всем вопросам пишите личное сообщение пользователю M0p94ok.
11:00
397
Нет комментариев. Ваш будет первым!