Поиск

(Jazz/Latin Jazz/Contemporary Jazz/Mainstream Jazz) Caribbean Jazz Project - The Gathering - 2002, APE (image+.cue), lossless

(Jazz/Latin Jazz/Contemporary Jazz/Mainstream Jazz) Caribbean Jazz Project - The Gathering - 2002, APE (image+.cue), lossless
Треклист:
Caribbean Jazz Project - The Gathering
Жанр: Jazz/Latin Jazz/Contemporary Jazz/Mainstream Jazz
Год выпуска диска: 2002
Производитель диска: Concord Records,USA
Аудио кодек: APE
Тип рипа: image+.cue
Битрейт аудио: lossless
Продолжительность: 00:50:39
Трэклист:

1. Rendezvous
2. Stolen Moments
3. See You in a Minute
4. The Gathering
5. Bemsha Swing
6. Libertad
7. El Guarachero Intrigozo (The Scheming Party Animal)
8. The Path
9. Masacoteando (In the Groove)

Dave Samuels - Vibes & Marimba
Dave Valentin - Flute
Dario Eskenazi - Piano
Ruben Rodriguez - Bass
Dafnis Prieto - Drums & Timbales
Richie Flores - Congas
Roberto Quintero - Congas
GUEST ARTISTS:
Paquito D'Rivera - Alto Saxophone
 
Отчет EAC
Exact Audio Copy V0.99 prebeta 4 from 23. January 2008
Отчёт EAC об извлечении, выполненном 21. января 2010, 12:27
Caribbean Jazz Project / The Gathering
Дисковод: PLEXTOR DVDR PX-800A Adapter: 0 ID: 0
Режим чтения : Достоверность
Использование точного потока : Да
Отключение кэша аудио : Да
Использование указателей C2 : Нет
Коррекция смещения при чтении : 48
Способность читать области Lead-in и Lead-out : Нет
Заполнение пропущенных сэмплов тишиной : Да
Удаление блоков с тишиной в начале и конце : Нет
При вычислениях CRC использовались нулевые сэмплы : Да
Интерфейс : Встроенный Win32-интерфейс для Win NT/2000
Выходной формат : Внутренние WAV-операции
Формат сэмплов : 44.100 Гц; 16 бит; стерео
TOC извлечённого CD
Трек | Старт | Длительность | Начальный сектор | Конечный сектор
---------------------------------------------------------------------
1 | 0:00.00 | 5:21.45 | 0 | 24119
2 | 5:21.45 | 7:27.54 | 24120 | 57698
3 | 12:49.24 | 4:53.61 | 57699 | 79734
4 | 17:43.10 | 5:54.57 | 79735 | 106341
5 | 23:37.67 | 7:38.12 | 106342 | 140703
6 | 31:16.04 | 4:51.65 | 140704 | 162593
7 | 36:07.69 | 5:36.59 | 162594 | 187852
8 | 41:44.53 | 5:49.70 | 187853 | 214097
9 | 47:34.48 | 3:04.41 | 214098 | 227938
Характеристики диапазона извлечения и сообщения об ошибках
Выбранный диапазон
Имя файла D:\Lossless\Caribbean Jazz Project -The Gathering -2002\Caribbean Jazz Project - The Gathering.wav
Пиковый уровень 98.8 %
Качество диапазона 100.0 %
CRC копии C61626BD
Копирование... OK
Ошибок не произошло
Конец отчёта
Рип c фирменного диска
По всем вопросам пишите личное сообщение пользователю M0p94ok.
11:01
243
Нет комментариев. Ваш будет первым!