Поиск

(Latin Jazz) Quarteto Novo — Quarteto Novo (1967) — 2008, FLAC (image+.cue), lossless

Треклист:
Quarteto Novo — Quarteto Novo (1967)
Жанр: Latin Jazz
Год выпуска диска: 2008
Label: EMI
Аудио кодек: FLAC
Тип рипа: image+.cue
Битрейт аудио: lossless
Продолжительность: 31:37
Трeклист:
01. O Ovo (2:18)
02. Fica Mal Com Deus (3:27)
03. Canto Geral (3:44)
04. Algodao (7:19)
05. Canta Maria (2:46)
06. Sintese (2:37)
07. Misturada (4:16)
08. Vim De Sant'Ana (5:10)
Сканы: 300 dpi
   Автор рипа barin99
 
Отчет ЕАС
Exact Audio Copy V0.99 prebeta 5 from 4. May 2009
EAC extraction logfile from 10. January 2010, 17:12
Quarteto Novo / Quarteto Novo
Used drive : TSSTcorpDVD+-RW TS-U633A Adapter: 0 ID: 1
Read mode : Secure
Utilize accurate stream : Yes
Defeat audio cache : Yes
Make use of C2 pointers : No
Read offset correction : 6
Overread into Lead-In and Lead-Out : No
Fill up missing offset samples with silence : Yes
Delete leading and trailing silent blocks : No
Null samples used in CRC calculations : Yes
Used interface : Native Win32 interface for Win NT & 2000
Used output format : Internal WAV Routines
Sample format : 44.100 Hz; 16 Bit; Stereo
TOC of the extracted CD
Track | Start | Length | Start sector | End sector
---------------------------------------------------------
1 | 0:00.00 | 2:17.72 | 0 | 10346
2 | 2:17.72 | 3:27.13 | 10347 | 25884
3 | 5:45.10 | 3:43.57 | 25885 | 42666
4 | 9:28.67 | 7:19.10 | 42667 | 75601
5 | 16:48.02 | 2:45.58 | 75602 | 88034
6 | 19:33.60 | 2:37.12 | 88035 | 99821
7 | 22:10.72 | 4:15.68 | 99822 | 119014
8 | 26:26.65 | 5:09.60 | 119015 | 142249
Range status and errors
Selected range
Filename C:\_Arc\EAC_Out\Quarteto Novo - Quarteto Novo\Quarteto Novo - Quarteto Novo.wav
Peak level 100.0 %
Range quality 100.0 %
Copy CRC 01BFD7F5
Copy OK
No errors occurred
AccurateRip summary
Track 1 cannot be verified as accurate (confidence 1) [95275987], AccurateRip returned [63C2C650]
Track 2 cannot be verified as accurate (confidence 1) [8E2B176B], AccurateRip returned [9393C3B4]
Track 3 cannot be verified as accurate (confidence 1) [9B943516], AccurateRip returned [0B68B0D5]
Track 4 cannot be verified as accurate (confidence 1) [C84D6E43], AccurateRip returned [33D7E68C]
Track 5 cannot be verified as accurate (confidence 1) [7DCFB13E], AccurateRip returned [B9919689]
Track 6 cannot be verified as accurate (confidence 1) [C5A10894], AccurateRip returned [5C1FD194]
Track 7 cannot be verified as accurate (confidence 1) [E2A6B109], AccurateRip returned [22A63518]
Track 8 cannot be verified as accurate (confidence 1) [241DA3CE], AccurateRip returned [9C980796]
No tracks could be verified as accurate
You may have a different pressing from the one(s) in the database
End of status report
  :arrow: Мои раздачи на трекере
Download available for power users only.
10:59
450
Нет комментариев. Ваш будет первым!