Поиск

(Latin Jazz, Bossa Nova) Antonio Carlos Jobim - A Certain Mr. Jobim (1967) - 2008, FLAC (image+.cue), lossless

(Latin Jazz, Bossa Nova) Antonio Carlos Jobim - A Certain Mr. Jobim (1967) - 2008, FLAC (image+.cue), lossless
Треклист:
Antonio Carlos Jobim – A Certain Mr. Jobim (1967)
Жанр: Latin Jazz, Bossa Nova
Год издания диска: 2008
Издатель (лейбл): Warner Bros.
Номер по каталогу: 9362482442
Аудиокодек: FLAC (*.flac)
Тип рипа: image+.cue
Битрейт аудио: lossless
Продолжительность: 26:37
Rip by fipi
Наличие сканов в содержимом раздачи: нет
Треклист:
01. Bonita (2:58)
02. Se Todos Fossem Iguais A Voce (2:19)
03. Off Key (Desafinado) (3:08)
04. Photograph (2:12)
05. Surfboard (2:48)
06. Once Again (Outra Vez) (2:09)
07. I Was Just One More For You (Esperanca Perdida) (2:27)
08. Estrada Do Sol (3:31)
09. Don't Ever Go Away (Por Causa De Voce) (2:49)
10. Zingaro (2:17)
 
 
Лог создания рипа
Exact Audio Copy V1.0 beta 3 from 29. August 2011
EAC extraction logfile from 12. February 2012, 13:25
Antonio Carlos Jobim / A Certain Mr. Jobim
Used drive : BENQ DVD DD DW1640 Adapter: 0 ID: 1
Read mode : Secure
Utilize accurate stream : Yes
Defeat audio cache : Yes
Make use of C2 pointers : No
Read offset correction : 618
Overread into Lead-In and Lead-Out : No
Fill up missing offset samples with silence : Yes
Delete leading and trailing silent blocks : No
Null samples used in CRC calculations : Yes
Used interface : Native Win32 interface for Win NT & 2000
Used output format : Internal WAV Routines
Sample format : 44.100 Hz; 16 Bit; Stereo
TOC of the extracted CD
Track | Start | Length | Start sector | End sector
---------------------------------------------------------
1 | 0:00.00 | 2:58.15 | 0 | 13364
2 | 2:58.15 | 2:18.40 | 13365 | 23754
3 | 5:16.55 | 3:08.12 | 23755 | 37866
4 | 8:24.67 | 2:12.00 | 37867 | 47766
5 | 10:36.67 | 2:48.00 | 47767 | 60366
6 | 13:24.67 | 2:09.10 | 60367 | 70051
7 | 15:34.02 | 2:26.40 | 70052 | 81041
8 | 18:00.42 | 3:31.23 | 81042 | 96889
9 | 21:31.65 | 2:48.47 | 96890 | 109536
10 | 24:20.37 | 2:16.40 | 109537 | 119776
Range status and errors
Selected range
Filename C:\My Music\Antonio Carlos Jobim - A Certain Mr. Jobim\Antonio Carlos Jobim - A Certain Mr. Jobim.wav
Peak level 100.0 %
Extraction speed 6.8 X
Range quality 100.0 %
Copy CRC 7D52F663
Copy OK
No errors occurred
End of status report
---- CUETools DB Plugin V2.1.3
[CTDB TOCID: _sfxyIAvTYl2YUKIBoQIpawsMks-] found, Submit result: _sfxyIAvTYl2YUKIBoQIpawsMks- has been confirmed
[2f2e8d1c] (2/2) Accurately ripped
 
Содержание индексной карты (.CUE)
REM GENRE Jazz
REM DATE 1967
REM DISCID 7A063D0A
REM COMMENT ExactAudioCopy v1.0b3
PERFORMER "Antonio Carlos Jobim"
TITLE "A Certain Mr. Jobim"
FILE "Antonio Carlos Jobim - A Certain Mr. Jobim.flac" WAVE
TRACK 01 AUDIO
TITLE "Bonita"
INDEX 01 00:00:00
TRACK 02 AUDIO
TITLE "Se Todos Fossem Iguais A Voce"
FLAGS DCP
INDEX 00 02:55:45
INDEX 01 02:58:15
TRACK 03 AUDIO
TITLE "Off Key (Desafinado)"
FLAGS DCP
INDEX 00 05:14:00
INDEX 01 05:16:55
TRACK 04 AUDIO
TITLE "Photograph"
FLAGS DCP
INDEX 00 08:22:12
INDEX 01 08:24:67
TRACK 05 AUDIO
TITLE "Surfboard"
FLAGS DCP
INDEX 00 10:33:60
INDEX 01 10:36:67
TRACK 06 AUDIO
TITLE "Once Again (Outra Vez)"
FLAGS DCP
INDEX 00 13:22:65
INDEX 01 13:24:67
TRACK 07 AUDIO
TITLE "I Was Just One More For You (Esperanca Perdida)"
FLAGS DCP
INDEX 00 15:32:32
INDEX 01 15:34:02
TRACK 08 AUDIO
TITLE "Estrada Do Sol"
FLAGS DCP
INDEX 00 17:57:15
INDEX 01 18:00:42
TRACK 09 AUDIO
TITLE "Don't Ever Go Away (Por Causa De Voce)"
FLAGS DCP
INDEX 00 21:29:45
INDEX 01 21:31:65
TRACK 10 AUDIO
TITLE "Zingaro"
FLAGS DCP
INDEX 00 24:17:71
INDEX 01 24:20:37
 
AccurateRip
[CUETools log; Date: 12.02.2012 19:59:27; Version: 2.0.9]
[CTDB TOCID: _sfxyIAvTYl2YUKIBoQIpawsMks-] found.
[ CTDBID ] Status
[2f2e8d1c] (3/3) Accurately ripped
[AccurateRip ID: 000a13c3-00507a10-7a063d0a] found.
Track [ CRC ] Status
01 [79c5fd3e] (6/8) Accurately ripped
02 [d427704f] (6/8) Accurately ripped
03 [af07c537] (6/8) Accurately ripped
04 [7232319e] (6/8) Accurately ripped
05 [5f97ef31] (6/8) Accurately ripped
06 [c71f59ea] (6/8) Accurately ripped
07 [75d184f3] (6/8) Accurately ripped
08 [9f8db55d] (6/8) Accurately ripped
09 [ea8e5e78] (6/8) Accurately ripped
10 [f08350d8] (6/8) Accurately ripped
Track Peak [ CRC32 ] [W/O NULL] [ LOG ]
-- 100,0 [7D52F663] [DB031940] CRC32
01 88,4 [6AE04F83] [2D129438]
02 89,4 [59AF7D85] [72F6F2F3]
03 87,5 [67C54C33] [A34FCDDA]
04 91,3 [E541CC30] [DD22AC55]
05 100,0 [0BE08528] [6037A9D9]
06 86,8 [75B19748] [1A662440]
07 88,2 [7C4DFD65] [946906FA]
08 87,9 [5151EBC1] [39F6C41C]
09 86,9 [2EA6EF1C] [99C0EC8C]
10 84,8 [57DD55BB] [EF766F79]
02:33
629
Нет комментариев. Ваш будет первым!