Поиск

(Jazz Fusion / World Fusion / Flamenco / Vocal Jazz) Salvador Niebla - Azul - 1997, FLAC (tracks+.cue), lossless (feat. Carles Benavent, Max Sunyer, Debora J. Carter)

(Jazz Fusion / World Fusion / Flamenco / Vocal Jazz) Salvador Niebla - Azul - 1997, FLAC (tracks+.cue), lossless (feat. Carles Benavent, Max Sunyer, Debora J. Carter)
Треклист:
Salvador Niebla - Azul
Жанр: Jazz Fusion / World Fusion / Flamenco / Vocal Jazz
Страна-производитель диска: Spain
Год издания диска: 1997
Издатель (лейбл): Nuevos Medios
Номер по каталогу: NM 15 708 CD
Страна: Spain
Аудиокодек: FLAC (*.flac)
Тип рипа: tracks+.cue
Битрейт аудио: lossless
Продолжительность: 54:14
Источник (релизер): what.cd (rtrtrtrt)
Наличие сканов в содержимом раздачи: да
Треклист:
1. Rumba Forever 4:00
2. Camel Ride 4:22
3. Azul 3:58
4. Natural Energy 5:18
5. The Vibe 4:15
6. For Biko 4:06
7. Espejismos 3:34
8. Paradise Elegí 7:11
9. Day Dreamday 5:14
10. The Last Good Guys 3:09
11. Eyes 4:40
12. Evening In Girona 4:27
 
Лог создания рипа
Exact Audio Copy V1.0 beta 3 from 29. August 2011
EAC extraction logfile from 28. January 2012, 1:20
Salvador Niebla / Azul
Used drive : Optiarc BD RW BD-5300S Adapter: 2 ID: 1
Read mode : Secure
Utilize accurate stream : Yes
Defeat audio cache : Yes
Make use of C2 pointers : No
Read offset correction : 6
Overread into Lead-In and Lead-Out : No
Fill up missing offset samples with silence : Yes
Delete leading and trailing silent blocks : No
Null samples used in CRC calculations : Yes
Used interface : Native Win32 interface for Win NT & 2000
Gap handling : Appended to previous track
Used output format : User Defined Encoder
Selected bitrate : 1024 kBit/s
Quality : High
Add ID3 tag : No
Command line compressor : C:\Program Files (x86)\Exact Audio Copy\FLAC\FLAC.EXE
Additional command line options : -8 -V -T "ARTIST=%artist%" -T "TITLE=%title%" -T "ALBUM=%albumtitle%" -T "DATE=%year%" -T "TRACKNUMBER=%tracknr%" -T "GENRE=%genre%" -T "COMMENT=%comment%" -T "BAND=%albuminterpret%" -T "COMPOSER=%composer%" %haslyrics%--tag-from-file=LYRICS="%lyricsfile%"%haslyrics% -T "DISCNUMBER=%cdnumber%" -T "TOTALDISCS=%totalcds%" -T "TOTALTRACKS=%numtracks%" %hascover%--picture="%coverfile%"%hascover% %source% -o %dest%
TOC of the extracted CD
Track | Start | Length | Start sector | End sector
---------------------------------------------------------
1 | 0:00.00 | 4:00.30 | 0 | 18029
2 | 4:00.30 | 4:21.38 | 18030 | 37642
3 | 8:21.68 | 3:58.37 | 37643 | 55529
4 | 12:20.30 | 5:18.00 | 55530 | 79379
5 | 17:38.30 | 4:14.63 | 79380 | 98492
6 | 21:53.18 | 4:06.37 | 98493 | 116979
7 | 25:59.55 | 3:33.50 | 116980 | 133004
8 | 29:33.30 | 7:11.25 | 133005 | 165354
9 | 36:44.55 | 5:13.43 | 165355 | 188872
10 | 41:58.23 | 3:08.45 | 188873 | 203017
11 | 45:06.68 | 4:40.00 | 203018 | 224017
12 | 49:46.68 | 4:27.00 | 224018 | 244042
Track 1
Filename F:\rtrtrtrt\salvador niebla - azul (1997)\01 Rumba Forever.wav
Pre-gap length 0:00:02.00
Peak level 91.3 %
Extraction speed 5.8 X
Track quality 100.0 %
Test CRC 9B177EC0
Copy CRC 9B177EC0
Track not present in AccurateRip database
Copy OK
Track 2
Filename F:\rtrtrtrt\salvador niebla - azul (1997)\02 Camel Ride.wav
Pre-gap length 0:00:01.49
Peak level 98.8 %
Extraction speed 6.4 X
Track quality 100.0 %
Test CRC 3234BBB0
Copy CRC 3234BBB0
Track not present in AccurateRip database
Copy OK
Track 3
Filename F:\rtrtrtrt\salvador niebla - azul (1997)\03 Azul.wav
Pre-gap length 0:00:01.00
Peak level 98.8 %
Extraction speed 6.9 X
Track quality 100.0 %
Test CRC A64B8E12
Copy CRC A64B8E12
Track not present in AccurateRip database
Copy OK
Track 4
Filename F:\rtrtrtrt\salvador niebla - azul (1997)\04 Natural Energy.wav
Pre-gap length 0:00:01.66
Peak level 96.8 %
Extraction speed 7.6 X
Track quality 100.0 %
Test CRC 86E485EC
Copy CRC 86E485EC
Track not present in AccurateRip database
Copy OK
Track 5
Filename F:\rtrtrtrt\salvador niebla - azul (1997)\05 The Vibe.wav
Pre-gap length 0:00:02.06
Peak level 92.7 %
Extraction speed 7.9 X
Track quality 100.0 %
Test CRC 03AB80C5
Copy CRC 03AB80C5
Track not present in AccurateRip database
Copy OK
Track 6
Filename F:\rtrtrtrt\salvador niebla - azul (1997)\06 For Biko.wav
Pre-gap length 0:00:02.06
Peak level 98.8 %
Extraction speed 8.3 X
Track quality 100.0 %
Test CRC 232CFCF9
Copy CRC 232CFCF9
Track not present in AccurateRip database
Copy OK
Track 7
Filename F:\rtrtrtrt\salvador niebla - azul (1997)\07 Espejismos.wav
Pre-gap length 0:00:01.00
Peak level 95.9 %
Extraction speed 8.4 X
Track quality 100.0 %
Test CRC 38625392
Copy CRC 38625392
Track not present in AccurateRip database
Copy OK
Track 8
Filename F:\rtrtrtrt\salvador niebla - azul (1997)\08 Paradise Elegi.wav
Pre-gap length 0:00:02.16
Peak level 95.5 %
Extraction speed 9.6 X
Track quality 100.0 %
Test CRC 108B7857
Copy CRC 108B7857
Track not present in AccurateRip database
Copy OK
Track 9
Filename F:\rtrtrtrt\salvador niebla - azul (1997)\09 Day Dreamday.wav
Pre-gap length 0:00:01.33
Peak level 98.1 %
Extraction speed 9.8 X
Track quality 100.0 %
Test CRC 7FF5BCBA
Copy CRC 7FF5BCBA
Track not present in AccurateRip database
Copy OK
Track 10
Filename F:\rtrtrtrt\salvador niebla - azul (1997)\10 The Last Good Guys.wav
Pre-gap length 0:00:01.00
Peak level 98.8 %
Extraction speed 9.3 X
Track quality 100.0 %
Test CRC AD1D6B4D
Copy CRC AD1D6B4D
Track not present in AccurateRip database
Copy OK
Track 11
Filename F:\rtrtrtrt\salvador niebla - azul (1997)\11 Eyes.wav
Pre-gap length 0:00:02.00
Peak level 98.8 %
Extraction speed 10.3 X
Track quality 100.0 %
Test CRC B1785D48
Copy CRC B1785D48
Track not present in AccurateRip database
Copy OK
Track 12
Filename F:\rtrtrtrt\salvador niebla - azul (1997)\12 Evening in Girona.wav
Pre-gap length 0:00:02.40
Peak level 92.1 %
Extraction speed 10.5 X
Track quality 100.0 %
Test CRC A9F9443D
Copy CRC A9F9443D
Track not present in AccurateRip database
Copy OK
None of the tracks are present in the AccurateRip database
No errors occurred
End of status report
==== Log checksum FCFD9A90B1991A8BEF406E65096467AC76CE54BF7496D5064F0EEF2E400D6211 ====
 
Содержание индексной карты (.CUE)
REM GENRE "Jazz Fusion / World Fusion / Flamenco / Vocal Jazz"
REM DATE 1997
REM DISCID 900CB50C
REM COMMENT "ExactAudioCopy v1.0b3"
PERFORMER "Salvador Niebla"
TITLE "Azul"
FILE "01 - Rumba Forever.wav" WAVE
TRACK 01 AUDIO
TITLE "Rumba Forever"
PERFORMER "Salvador Niebla"
INDEX 01 00:00:00
TRACK 02 AUDIO
TITLE "Camel Ride"
PERFORMER "Salvador Niebla"
INDEX 00 03:58:68
FILE "02 - Camel Ride.wav" WAVE
INDEX 01 00:00:00
TRACK 03 AUDIO
TITLE "Azul"
PERFORMER "Salvador Niebla"
INDEX 00 04:20:38
FILE "03 - Azul.wav" WAVE
INDEX 01 00:00:00
TRACK 04 AUDIO
TITLE "Natural Energy"
PERFORMER "Salvador Niebla"
INDEX 00 03:56:62
FILE "04 - Natural Energy.wav" WAVE
INDEX 01 00:00:00
TRACK 05 AUDIO
TITLE "The Vibe"
PERFORMER "Salvador Niebla"
INDEX 00 05:15:70
FILE "05 - The Vibe.wav" WAVE
INDEX 01 00:00:00
TRACK 06 AUDIO
TITLE "For Biko"
PERFORMER "Salvador Niebla"
INDEX 00 04:12:58
FILE "06 - For Biko.wav" WAVE
INDEX 01 00:00:00
TRACK 07 AUDIO
TITLE "Espejismos"
PERFORMER "Salvador Niebla"
INDEX 00 04:05:37
FILE "07 - Espejismos.wav" WAVE
INDEX 01 00:00:00
TRACK 08 AUDIO
TITLE "Paradise Elegi"
PERFORMER "Salvador Niebla"
INDEX 00 03:31:38
FILE "08 - Paradise Elegi.wav" WAVE
INDEX 01 00:00:00
TRACK 09 AUDIO
TITLE "Day Dreamday"
PERFORMER "Salvador Niebla"
INDEX 00 07:10:00
FILE "09 - Day Dreamday.wav" WAVE
INDEX 01 00:00:00
TRACK 10 AUDIO
TITLE "The Last Good Guys"
PERFORMER "Salvador Niebla"
INDEX 00 05:12:43
FILE "10 - The Last Good Guys.wav" WAVE
INDEX 01 00:00:00
TRACK 11 AUDIO
TITLE "Eyes"
PERFORMER "Salvador Niebla"
INDEX 00 03:06:45
FILE "11 - Eyes.wav" WAVE
INDEX 01 00:00:00
TRACK 12 AUDIO
TITLE "Evening In Girona"
PERFORMER "Salvador Niebla"
INDEX 00 04:37:45
FILE "12 - Evening In Girona.wav" WAVE
INDEX 01 00:00:00
 
Скриншот спектра частот
Доп. информация: Azul Espejismos Evening In Girona
 
Об исполнителе (группе)

Salvador Niebla has his own band NATURAL ENERGY with whom he has recorded his first LP titled Azul acting as composer and arranger, and 26 musicians from Spain and Tunisia participated in this project. He has recorded and collaborated with a wide variety of musicians representing many different musical styles...
http://gen-16.com/Artists/N/Salvador-Niebla
 
Состав
Acelino de Paula — bajo (2, 10)
Aljosa Mutica — saxo (2, 5, 10)
Carles Benavent — bajo (1, 9)
Carmen Cuesta — coro (5, 8)
Debora J. Carter — voz (2, 5, 8, 9, 11), coros (9)
Fethi Zghonda — violín (1, 4, 8, 10, 11)
Ginesa Ortega — voz (7)
Hichem Ghrouda Badrani — nay (1, 4, 5, 8, 11)
Ignacio Zamora — bajo (8, 12)
Iman El Quchiri — zaharit (3)
J. Albert Amargós — teclado (2, 11, 12)
J. Antón Mas — programación (7)
J. M. Kitflus — teclados y piano (6)
J. Manuel Cañizarres — guitarra (1)
Javier Mas — archi-laúd (3), laúd (9,11)
Jordi Bonell — guitarra (5)
Jorge Pardo — saxo (4)
Josep Sanou — programación (7)
Juan Sanmartí — guitarra (10)
Louis M'Bomio — voz rap (5), voces (6)
Matew Simon — trompeta (2, 3, 5, 10, 11)
Max Sunyer — guitarra (9)
Mojamed Mabrouk — tar (1, 2, 3, 11)
Mone Teruel — coro (5, 8)
Nan Mercader — bongo (1, 4, 8, 10-12)
Norman Hogui — trombón (1, 2, 5, 11)
Pere Bardagí — violín (1, 4, 11)
Rachida Bounovar — zaharit (3)
Salvador Niebla — programación (1-6, 8-12), batería (1-12)
Sergio Riera — bajo (4), programación (7)
Shamir El Quchiri — zaharit (3)
Taoufik Zghonda — kanún (1, 4, 5, 8, 10)
Txell Sust — coro (5, 8)
Xavi Capellas — piano (1), armónica (2)
Xavier Figueroa — saxo (2, 5, 11, 12), clarinete, bajo (3)
02:32
356
Нет комментариев. Ваш будет первым!