Поиск

(Latin Jazz, Bossa Nova) Lisa Ono - Questa Bossa Mia... - 2002, FLAC (tracks+.cue), lossless

(Latin Jazz, Bossa Nova) Lisa Ono - Questa Bossa Mia... - 2002, FLAC (tracks+.cue), lossless
Треклист:
Lisa Ono – Questa Bossa Mia...
Жанр: Latin Jazz, Bossa Nova
Год издания диска: 2002
Издатель (лейбл): Deckdisc
Номер по каталогу: 22045-2
Аудиокодек: FLAC (*.flac)
Тип рипа: tracks+.cue
Битрейт аудио: lossless
Продолжительность: 49:54
Источник:
Наличие сканов в содержимом раздачи: back, front
Треклист:
01. Cosa Hai Messo Nel Caffe (3:31)
02. Sul Cocuzzolo (2:23)
03. Non Dimenticar (2:40)
04. Per Il Sentiero (4:35)
05. Piove (Ciao Ciao Bambina) (2:22)
06. 'O Sole Mio (3:49)
07. Nel Blu Dipinto Di Blu (Volare) (4:28)
08. Reginella (3:06)
09. Roma Nun Fa La Stupida Stasera (4:44)
10. Questi Vent'Anni Miei (3:52)
11. Fino A Chiamarmi Eva (3:24)
12. E La Chiamano Estate (4:30)
13. Ninnananna Ninna... (3:10)
14. Ti Guardero Nel Cuore (3:20)
 
 
Лог создания рипа
Exact Audio Copy V1.0 beta 3 from 29. August 2011
EAC extraction logfile from 14. October 2011, 12:08
Lisa Ono / Questa Bossa Mia...
Used drive : HL-DT-STDVD-RAM GSA-H58N Adapter: 0 ID: 0
Read mode : Secure
Utilize accurate stream : Yes
Defeat audio cache : Yes
Make use of C2 pointers : No
Read offset correction : 102
Overread into Lead-In and Lead-Out : No
Fill up missing offset samples with silence : Yes
Delete leading and trailing silent blocks : No
Null samples used in CRC calculations : Yes
Used interface : Native Win32 interface for Win NT & 2000
Gap handling : Appended to previous track
Used output format : User Defined Encoder
Selected bitrate : 1024 kBit/s
Quality : High
Add ID3 tag : No
Command line compressor : C:\Program Files (x86)\Exact Audio Copy\Flac\flac.exe
Additional command line options : -8 -V -T "ARTIST=%artist%" -T "TITLE=%title%" -T "ALBUM=%albumtitle%" -T "DATE=%year%" -T "TRACKNUMBER=%tracknr%" -T "GENRE=%genre%" -T "PERFORMER=%albuminterpret%" -T "COMPOSER=%composer%" %haslyrics%--tag-from-file=LYRICS="%lyricsfile%"%haslyrics% -T "ALBUMARTIST=%albumartist%" -T "ALBUM ARTIST=%albumartist%" -T "DISCNUMBER=%cdnumber%" -T "TOTALDISCS=%totalcds%" -T "TOTALTRACKS=%numtracks%" -T "COMMENT=%comment%" %source% -o %dest%
TOC of the extracted CD
Track | Start | Length | Start sector | End sector
---------------------------------------------------------
1 | 0:00.00 | 3:30.63 | 0 | 15812
2 | 3:30.63 | 2:22.72 | 15813 | 26534
3 | 5:53.60 | 2:40.05 | 26535 | 38539
4 | 8:33.65 | 4:34.55 | 38540 | 59144
5 | 13:08.45 | 2:22.05 | 59145 | 69799
6 | 15:30.50 | 3:49.13 | 69800 | 86987
7 | 19:19.63 | 4:28.00 | 86988 | 107087
8 | 23:47.63 | 3:05.67 | 107088 | 121029
9 | 26:53.55 | 4:44.10 | 121030 | 142339
10 | 31:37.65 | 3:51.60 | 142340 | 159724
11 | 35:29.50 | 3:23.70 | 159725 | 175019
12 | 38:53.45 | 4:30.22 | 175020 | 195291
13 | 43:23.67 | 3:09.73 | 195292 | 209539
14 | 46:33.65 | 3:20.10 | 209540 | 224549
Track 1
Filename D:\EAC Rips\Lisa Ono - Questa Bossa Mia... (2002) [FLAC]\01 - Cosa Hai Messo Nel Caffè.wav
Pre-gap length 0:00:02.00
Peak level 97.9 %
Extraction speed 0.8 X
Track quality 99.7 %
Test CRC 6A18D324
Copy CRC 6A18D324
Cannot be verified as accurate (confidence 1) [CC3B59C1], AccurateRip returned [7453292C] (AR v2)
Copy OK
Track 2
Filename D:\EAC Rips\Lisa Ono - Questa Bossa Mia... (2002) [FLAC]\02 - Sul Cocuzzolo.wav
Pre-gap length 0:00:04.46
Peak level 97.9 %
Extraction speed 0.9 X
Track quality 99.7 %
Test CRC 43336E42
Copy CRC 43336E42
Cannot be verified as accurate (confidence 1) [84203171], AccurateRip returned [33392064] (AR v2)
Copy OK
Track 3
Filename D:\EAC Rips\Lisa Ono - Questa Bossa Mia... (2002) [FLAC]\03 - Non Dimenticar.wav
Pre-gap length 0:00:05.00
Peak level 97.9 %
Extraction speed 1.2 X
Track quality 99.8 %
Test CRC 2534CB59
Copy CRC 2534CB59
Cannot be verified as accurate (confidence 1) [DBA15346], AccurateRip returned [84C9343C] (AR v2)
Copy OK
Track 4
Filename D:\EAC Rips\Lisa Ono - Questa Bossa Mia... (2002) [FLAC]\04 - Per II Sentiero.wav
Pre-gap length 0:00:03.62
Peak level 97.9 %
Extraction speed 1.8 X
Track quality 99.9 %
Test CRC F4C303A4
Copy CRC F4C303A4
Cannot be verified as accurate (confidence 1) [7FA803C3], AccurateRip returned [A1BF1235] (AR v2)
Copy OK
Track 5
Filename D:\EAC Rips\Lisa Ono - Questa Bossa Mia... (2002) [FLAC]\05 - Piove (Ciao Ciao Bambina).wav
Pre-gap length 0:00:03.36
Peak level 97.9 %
Extraction speed 1.6 X
Track quality 99.9 %
Test CRC FE0E24AA
Copy CRC FE0E24AA
Cannot be verified as accurate (confidence 1) [C7DCF0F6], AccurateRip returned [666BEC81] (AR v2)
Copy OK
Track 6
Filename D:\EAC Rips\Lisa Ono - Questa Bossa Mia... (2002) [FLAC]\06 - 'O Sole Mio.wav
Pre-gap length 0:00:03.40
Peak level 97.9 %
Extraction speed 2.2 X
Track quality 100.0 %
Test CRC 6FE44AC0
Copy CRC 6FE44AC0
Cannot be verified as accurate (confidence 1) [4C06AAD0], AccurateRip returned [C4E0B0B7] (AR v2)
Copy OK
Track 7
Filename D:\EAC Rips\Lisa Ono - Questa Bossa Mia... (2002) [FLAC]\07 - Nel Blu Dipinto Di Blu (Volare).wav
Pre-gap length 0:00:04.97
Peak level 97.9 %
Extraction speed 2.3 X
Track quality 100.0 %
Test CRC 292DD064
Copy CRC 292DD064
Cannot be verified as accurate (confidence 1) [872F37DB], AccurateRip returned [E009AE22] (AR v2)
Copy OK
Track 8
Filename D:\EAC Rips\Lisa Ono - Questa Bossa Mia... (2002) [FLAC]\08 - Reginella.wav
Pre-gap length 0:00:03.46
Peak level 97.9 %
Extraction speed 2.0 X
Track quality 99.9 %
Test CRC 16B1E00D
Copy CRC 16B1E00D
Cannot be verified as accurate (confidence 1) [0D9EE591], AccurateRip returned [F0347D48] (AR v2)
Copy OK
Track 9
Filename D:\EAC Rips\Lisa Ono - Questa Bossa Mia... (2002) [FLAC]\09 - Roma Nun Fa La Stupida Stasera.wav
Pre-gap length 0:00:04.69
Peak level 97.9 %
Extraction speed 2.6 X
Track quality 100.0 %
Test CRC D4F72ABA
Copy CRC D4F72ABA
Cannot be verified as accurate (confidence 1) [63A10244], AccurateRip returned [CA4FB681] (AR v2)
Copy OK
Track 10
Filename D:\EAC Rips\Lisa Ono - Questa Bossa Mia... (2002) [FLAC]\10 - Questi Vent'Anni Miei.wav
Pre-gap length 0:00:07.40
Peak level 97.9 %
Extraction speed 2.7 X
Track quality 100.0 %
Test CRC 42E35CD2
Copy CRC 42E35CD2
Cannot be verified as accurate (confidence 1) [4B58059B], AccurateRip returned [4C92A030] (AR v2)
Copy OK
Track 11
Filename D:\EAC Rips\Lisa Ono - Questa Bossa Mia... (2002) [FLAC]\11 - Fino A Chiamarmi Eva.wav
Pre-gap length 0:00:05.84
Peak level 97.9 %
Extraction speed 2.7 X
Track quality 100.0 %
Test CRC ECC45769
Copy CRC ECC45769
Cannot be verified as accurate (confidence 1) [D95F6FD2], AccurateRip returned [C85BB55E] (AR v2)
Copy OK
Track 12
Filename D:\EAC Rips\Lisa Ono - Questa Bossa Mia... (2002) [FLAC]\12 - E La Chiamano Estate.wav
Pre-gap length 0:00:04.26
Peak level 97.9 %
Extraction speed 2.9 X
Track quality 100.0 %
Test CRC C1A8CC3A
Copy CRC C1A8CC3A
Cannot be verified as accurate (confidence 1) [00090810], AccurateRip returned [9F6DA78A] (AR v2)
Copy OK
Track 13
Filename D:\EAC Rips\Lisa Ono - Questa Bossa Mia... (2002) [FLAC]\13 - Ninnananna Ninna....wav
Pre-gap length 0:00:04.66
Peak level 97.9 %
Extraction speed 2.9 X
Track quality 100.0 %
Test CRC 8D5571E3
Copy CRC 8D5571E3
Cannot be verified as accurate (confidence 1) [E1FC3A7F], AccurateRip returned [CB5121CC] (AR v2)
Copy OK
Track 14
Filename D:\EAC Rips\Lisa Ono - Questa Bossa Mia... (2002) [FLAC]\14 - Ti Guardero'nel Cuore.wav
Pre-gap length 0:00:06.00
Peak level 97.9 %
Extraction speed 3.0 X
Track quality 100.0 %
Test CRC 6590AD22
Copy CRC 6590AD22
Cannot be verified as accurate (confidence 1) [415631A8], AccurateRip returned [DD70B893] (AR v2)
Copy OK
No tracks could be verified as accurate
You may have a different pressing from the one(s) in the database
No errors occurred
End of status report
---- CUETools DB Plugin V2.1.3
[CTDB TOCID: A1KhQkz4cWIRwYoxx7KvV7JSDEk-] disk not present in database, Submit result: A1KhQkz4cWIRwYoxx7KvV7JSDEk- has been uploaded
==== Log checksum 0F03C79FF3D73DCA1229499ECCB5D15F1B044554A96CE152788B1942D223957D ====
------------------------------------------------------------
Exact Audio Copy V1.0 beta 3 from 29. August 2011
EAC extraction logfile from 14. October 2011, 12:09
Lisa Ono / Questa Bossa Mia...
Used drive : HL-DT-STDVD-RAM GSA-H58N Adapter: 0 ID: 0
Read mode : Secure
Utilize accurate stream : Yes
Defeat audio cache : Yes
Make use of C2 pointers : No
Read offset correction : 102
Overread into Lead-In and Lead-Out : No
Fill up missing offset samples with silence : Yes
Delete leading and trailing silent blocks : No
Null samples used in CRC calculations : Yes
Used interface : Native Win32 interface for Win NT & 2000
Gap handling : Appended to previous track
Used output format : User Defined Encoder
Selected bitrate : 1024 kBit/s
Quality : High
Add ID3 tag : No
Command line compressor : C:\Program Files (x86)\Exact Audio Copy\Flac\flac.exe
Additional command line options : -8 -V -T "ARTIST=%artist%" -T "TITLE=%title%" -T "ALBUM=%albumtitle%" -T "DATE=%year%" -T "TRACKNUMBER=%tracknr%" -T "GENRE=%genre%" -T "PERFORMER=%albuminterpret%" -T "COMPOSER=%composer%" %haslyrics%--tag-from-file=LYRICS="%lyricsfile%"%haslyrics% -T "ALBUMARTIST=%albumartist%" -T "ALBUM ARTIST=%albumartist%" -T "DISCNUMBER=%cdnumber%" -T "TOTALDISCS=%totalcds%" -T "TOTALTRACKS=%numtracks%" -T "COMMENT=%comment%" %source% -o %dest%
TOC of the extracted CD
Track | Start | Length | Start sector | End sector
---------------------------------------------------------
1 | 0:00.00 | 3:30.63 | 0 | 15812
2 | 3:30.63 | 2:22.72 | 15813 | 26534
3 | 5:53.60 | 2:40.05 | 26535 | 38539
4 | 8:33.65 | 4:34.55 | 38540 | 59144
5 | 13:08.45 | 2:22.05 | 59145 | 69799
6 | 15:30.50 | 3:49.13 | 69800 | 86987
7 | 19:19.63 | 4:28.00 | 86988 | 107087
8 | 23:47.63 | 3:05.67 | 107088 | 121029
9 | 26:53.55 | 4:44.10 | 121030 | 142339
10 | 31:37.65 | 3:51.60 | 142340 | 159724
11 | 35:29.50 | 3:23.70 | 159725 | 175019
12 | 38:53.45 | 4:30.22 | 175020 | 195291
13 | 43:23.67 | 3:09.73 | 195292 | 209539
14 | 46:33.65 | 3:20.10 | 209540 | 224549
Track 1
Filename D:\EAC Rips\Lisa Ono - Questa Bossa Mia... (2002) [FLAC]\01 - Cosa Hai Messo Nel Caffè.wav
Pre-gap length 0:00:02.00
Peak level 97.9 %
Extraction speed 0.8 X
Track quality 99.7 %
Test CRC 6A18D324
Copy CRC 6A18D324
Cannot be verified as accurate (confidence 1) [CC3B59C1], AccurateRip returned [7453292C] (AR v2)
Copy OK
Track 2
Filename D:\EAC Rips\Lisa Ono - Questa Bossa Mia... (2002) [FLAC]\02 - Sul Cocuzzolo.wav
Pre-gap length 0:00:04.46
Peak level 97.9 %
Extraction speed 0.9 X
Track quality 99.7 %
Test CRC 43336E42
Copy CRC 43336E42
Cannot be verified as accurate (confidence 1) [84203171], AccurateRip returned [33392064] (AR v2)
Copy OK
Track 3
Filename D:\EAC Rips\Lisa Ono - Questa Bossa Mia... (2002) [FLAC]\03 - Non Dimenticar.wav
Pre-gap length 0:00:05.00
Peak level 97.9 %
Extraction speed 1.2 X
Track quality 99.8 %
Test CRC 2534CB59
Copy CRC 2534CB59
Cannot be verified as accurate (confidence 1) [DBA15346], AccurateRip returned [84C9343C] (AR v2)
Copy OK
Track 4
Filename D:\EAC Rips\Lisa Ono - Questa Bossa Mia... (2002) [FLAC]\04 - Per II Sentiero.wav
Pre-gap length 0:00:03.62
Peak level 97.9 %
Extraction speed 1.8 X
Track quality 99.9 %
Test CRC F4C303A4
Copy CRC F4C303A4
Cannot be verified as accurate (confidence 1) [7FA803C3], AccurateRip returned [A1BF1235] (AR v2)
Copy OK
Track 5
Filename D:\EAC Rips\Lisa Ono - Questa Bossa Mia... (2002) [FLAC]\05 - Piove (Ciao Ciao Bambina).wav
Pre-gap length 0:00:03.36
Peak level 97.9 %
Extraction speed 1.6 X
Track quality 99.9 %
Test CRC FE0E24AA
Copy CRC FE0E24AA
Cannot be verified as accurate (confidence 1) [C7DCF0F6], AccurateRip returned [666BEC81] (AR v2)
Copy OK
Track 6
Filename D:\EAC Rips\Lisa Ono - Questa Bossa Mia... (2002) [FLAC]\06 - 'O Sole Mio.wav
Pre-gap length 0:00:03.40
Peak level 97.9 %
Extraction speed 2.2 X
Track quality 100.0 %
Test CRC 6FE44AC0
Copy CRC 6FE44AC0
Cannot be verified as accurate (confidence 1) [4C06AAD0], AccurateRip returned [C4E0B0B7] (AR v2)
Copy OK
Track 7
Filename D:\EAC Rips\Lisa Ono - Questa Bossa Mia... (2002) [FLAC]\07 - Nel Blu Dipinto Di Blu (Volare).wav
Pre-gap length 0:00:04.97
Peak level 97.9 %
Extraction speed 2.3 X
Track quality 100.0 %
Test CRC 292DD064
Copy CRC 292DD064
Cannot be verified as accurate (confidence 1) [872F37DB], AccurateRip returned [E009AE22] (AR v2)
Copy OK
Track 8
Filename D:\EAC Rips\Lisa Ono - Questa Bossa Mia... (2002) [FLAC]\08 - Reginella.wav
Pre-gap length 0:00:03.46
Peak level 97.9 %
Extraction speed 2.0 X
Track quality 99.9 %
Test CRC 16B1E00D
Copy CRC 16B1E00D
Cannot be verified as accurate (confidence 1) [0D9EE591], AccurateRip returned [F0347D48] (AR v2)
Copy OK
Track 9
Filename D:\EAC Rips\Lisa Ono - Questa Bossa Mia... (2002) [FLAC]\09 - Roma Nun Fa La Stupida Stasera.wav
Pre-gap length 0:00:04.69
Peak level 97.9 %
Extraction speed 2.6 X
Track quality 100.0 %
Test CRC D4F72ABA
Copy CRC D4F72ABA
Cannot be verified as accurate (confidence 1) [63A10244], AccurateRip returned [CA4FB681] (AR v2)
Copy OK
Track 10
Filename D:\EAC Rips\Lisa Ono - Questa Bossa Mia... (2002) [FLAC]\10 - Questi Vent'Anni Miei.wav
Pre-gap length 0:00:07.40
Peak level 97.9 %
Extraction speed 2.7 X
Track quality 100.0 %
Test CRC 42E35CD2
Copy CRC 42E35CD2
Cannot be verified as accurate (confidence 1) [4B58059B], AccurateRip returned [4C92A030] (AR v2)
Copy OK
Track 11
Filename D:\EAC Rips\Lisa Ono - Questa Bossa Mia... (2002) [FLAC]\11 - Fino A Chiamarmi Eva.wav
Pre-gap length 0:00:05.84
Peak level 97.9 %
Extraction speed 2.7 X
Track quality 100.0 %
Test CRC ECC45769
Copy CRC ECC45769
Cannot be verified as accurate (confidence 1) [D95F6FD2], AccurateRip returned [C85BB55E] (AR v2)
Copy OK
Track 12
Filename D:\EAC Rips\Lisa Ono - Questa Bossa Mia... (2002) [FLAC]\12 - E La Chiamano Estate.wav
Pre-gap length 0:00:04.26
Peak level 97.9 %
Extraction speed 2.9 X
Track quality 100.0 %
Test CRC C1A8CC3A
Copy CRC C1A8CC3A
Cannot be verified as accurate (confidence 1) [00090810], AccurateRip returned [9F6DA78A] (AR v2)
Copy OK
Track 13
Filename D:\EAC Rips\Lisa Ono - Questa Bossa Mia... (2002) [FLAC]\13 - Ninnananna Ninna....wav
Pre-gap length 0:00:04.66
Peak level 97.9 %
Extraction speed 2.9 X
Track quality 100.0 %
Test CRC 8D5571E3
Copy CRC 8D5571E3
Cannot be verified as accurate (confidence 1) [E1FC3A7F], AccurateRip returned [CB5121CC] (AR v2)
Copy OK
Track 14
Filename D:\EAC Rips\Lisa Ono - Questa Bossa Mia... (2002) [FLAC]\14 - Ti Guardero'nel Cuore.wav
Pre-gap length 0:00:06.00
Peak level 97.9 %
Extraction speed 3.0 X
Track quality 100.0 %
Test CRC 6590AD22
Copy CRC 6590AD22
Cannot be verified as accurate (confidence 1) [415631A8], AccurateRip returned [DD70B893] (AR v2)
Copy OK
No tracks could be verified as accurate
You may have a different pressing from the one(s) in the database
No errors occurred
End of status report
---- CUETools DB Plugin V2.1.3
[CTDB TOCID: A1KhQkz4cWIRwYoxx7KvV7JSDEk-] disk not present in database, Submit result: A1KhQkz4cWIRwYoxx7KvV7JSDEk- has been uploaded
==== Log checksum B3327B4D8D2FE1A784C5059F87747FAC32393228DA7A0E484482EEF173B71812 ====
 
Содержание индексной карты (.CUE)
REM GENRE Jazz
REM DATE 2002
REM DISCID B60BB20E
REM COMMENT "ExactAudioCopy v1.0b3"
PERFORMER "Lisa Ono"
TITLE "Questa Bossa Mia..."
FILE "01. Cosa Hai Messo Nel Caffe.flac" WAVE
TRACK 01 AUDIO
INDEX 01 00:00:00
TRACK 02 AUDIO
INDEX 00 03:26:28
FILE "02. Sul Cocuzzolo.flac" WAVE
INDEX 01 00:00:00
TRACK 03 AUDIO
INDEX 00 02:17:72
FILE "03. Non Dimenticar.flac" WAVE
INDEX 01 00:00:00
TRACK 04 AUDIO
INDEX 00 02:36:33
FILE "04. Per Il Sentiero.flac" WAVE
INDEX 01 00:00:00
TRACK 05 AUDIO
INDEX 00 04:31:28
FILE "05. Piove (Ciao Ciao Bambina).flac" WAVE
INDEX 01 00:00:00
TRACK 06 AUDIO
INDEX 00 02:18:50
FILE "06. 'O Sole Mio.flac" WAVE
INDEX 01 00:00:00
TRACK 07 AUDIO
INDEX 00 03:44:15
FILE "07. Nel Blu Dipinto Di Blu (Volare).flac" WAVE
INDEX 01 00:00:00
TRACK 08 AUDIO
INDEX 00 04:24:40
FILE "08. Reginella.flac" WAVE
INDEX 01 00:00:00
TRACK 09 AUDIO
INDEX 00 03:01:15
FILE "09. Roma Nun Fa La Stupida Stasera.flac" WAVE
INDEX 01 00:00:00
TRACK 10 AUDIO
INDEX 00 04:36:55
FILE "10. Questi Vent'Anni Miei.flac" WAVE
INDEX 01 00:00:00
TRACK 11 AUDIO
INDEX 00 03:45:72
FILE "11. Fino A Chiamarmi Eva.flac" WAVE
INDEX 01 00:00:00
TRACK 12 AUDIO
INDEX 00 03:19:50
FILE "12. E La Chiamano Estate.flac" WAVE
INDEX 01 00:00:00
TRACK 13 AUDIO
INDEX 00 04:25:47
FILE "13. Ninnananna Ninna....flac" WAVE
INDEX 01 00:00:00
TRACK 14 AUDIO
INDEX 00 03:03:73
FILE "14. Ti Guardero Nel Cuore.flac" WAVE
INDEX 01 00:00:00
 
CUETools log
[CUETools log; Date: 12.02.2012 22:48:29; Version: 2.0.9]
[CTDB TOCID: A1KhQkz4cWIRwYoxx7KvV7JSDEk-] found.
[ CTDBID ] Status
[ef74df90] (1/1) Accurately ripped
[AccurateRip ID: 0018e4ae-010d68dc-b60bb20e] found.
Track [ CRC ] Status
01 [c1a2b76c] (0/1) No match
02 [c03032d8] (0/1) No match
03 [87e109da] (0/1) No match
04 [0416892d] (0/1) No match
05 [7acf5f23] (0/1) No match
06 [53e4d1a7] (0/1) No match
07 [ef152302] (0/1) No match
08 [d72cbfcc] (0/1) No match
09 [d10401b1] (0/1) No match
10 [a9b6d824] (0/1) No match
11 [c85cb80e] (0/1) No match
12 [c648af04] (0/1) No match
13 [32d3ec7e] (0/1) No match
14 [2155734d] (0/1) No match
Offsetted by -10:
01 [7453292c] (1/1) Accurately ripped
02 [33392064] (1/1) Accurately ripped
03 [84c9343c] (1/1) Accurately ripped
04 [a1bf1235] (1/1) Accurately ripped
05 [666bec81] (1/1) Accurately ripped
06 [c4e0b0b7] (1/1) Accurately ripped
07 [e009ae22] (1/1) Accurately ripped
08 [f0347d48] (1/1) Accurately ripped
09 [ca4fb681] (1/1) Accurately ripped
10 [4c92a030] (1/1) Accurately ripped
11 [c85bb55e] (1/1) Accurately ripped
12 [9f6da78a] (1/1) Accurately ripped
13 [cb5121cc] (1/1) Accurately ripped
14 [dd70b893] (1/1) Accurately ripped
Track Peak [ CRC32 ] [W/O NULL] [ LOG ]
-- 97,9 [90CC6D81] [24380511]
01 97,9 [6A18D324] [D3BC6B45] CRC32
02 97,9 [43336E42] [C498D31F] CRC32
03 97,9 [2534CB59] [A804044D] CRC32
04 97,9 [F4C303A4] [4E6A5036] CRC32
05 97,9 [FE0E24AA] [2D78C3CF] CRC32
06 97,9 [6FE44AC0] [C81188E6] CRC32
07 97,9 [292DD064] [140E28C6] CRC32
08 97,9 [16B1E00D] [7D6679C0] CRC32
09 97,9 [D4F72ABA] [37E02748] CRC32
10 97,9 [42E35CD2] [B6220A9C] CRC32
11 97,9 [ECC45769] [624F3A1E] CRC32
12 97,9 [C1A8CC3A] [9945D279] CRC32
13 97,9 [8D5571E3] [D236EB5D] CRC32
14 97,9 [6590AD22] [714FC8DF] CRC32
02:33
475
Нет комментариев. Ваш будет первым!