Поиск

(Latin Jazz / Afro-Cuban Jazz) Omar Sosa (14 releases) - 1997-2013, FLAC (tracks+.cue), lossless

Треклист:
Omar Sosa
Жанр: Latin Jazz / Afro-Cuban Jazz
Аудио кодек: FLAC
Тип рипа: tracks+.cue
Битрейт аудио: lossless
Продолжительность: 13:38:09
about: Виртуозный кубинский мультиинструменталист, неоднократного номинанта на премию "Грэмми». Свой путь в музыку Омар Соса начинал с изучения приемов игры на перкуссии, в частности – маримбе. С 1983 года в центре его интересов – фортепиано. После переезда в 1995 году из Кубы в США (а сейчас музыкант живет с семьей в Испании) Омар Соса стал активным участником джазовой сцены. В 1996 году в свет выходит его первый альбом "Omar Omar", который сразу задает основной тон фирменного стиля Сосы – афро-кубинские мотивы и виртуозная импровизация.
«Его музыка – это фьюжн в лучшем смысле этого слова!» -- так отзывается о творчестве Омара Соса авторитетный ALLABOUTJAZZ. – «Виртуозный пианист смешивает свои музыкальные кубинские корни со стилистикой bebop, free jazz, местами даже hip-hop и электронной музыкой, и на выходе получает всегда необыкновенно свежий и современный коктейль из этих ингредиентов».
В записи альбома Омара Соса "Spirit Of The Roots" (2005) (который очень ищется) принимали участие 30 музыкантов! На альбоме Соса в очередной раз предлагает слушателям вкусить изысканное и мульти-компонентное блюдо из кубинской музыки, джаза, хип-хопа и примеси этнических афро-кубинских мотивов, текстов на арабском, английском, португальском и испанском языках, а также звуков таких экзотических инструментов, как гумбри, маримба, уд, джембе, балафон…
Prietos - рип от funky_cat , остальное - с xbt (с согласия релизёров) и с what.cd
 
1997 - Free Roots (WVF479039)
Продолжительность: 01:00:58
01. Omar Sosa - Travieso (Wild Boy) [05:22]
02. Omar Sosa - Fue Mentira (It Was A Lie) [04:17]
03. Omar Sosa - Buscando La Clave (Finding The Clave) [04:53]
04. Omar Sosa - Raya (The Line) [06:23]
05. Omar Sosa - Cha Cha Du Nord [04:38]
06. Omar Sosa - Pero No Lo Lei (But I Didn't Read It) [04:17]
07. Omar Sosa - Mis Tres Notas (My Three Notes) [05:02]
08. Omar Sosa - AfroCuEs A Dada [08:52]
09. Omar Sosa - Shirma [03:57]
10. Omar Sosa - Guajira de Capital (Country Girl In The Big City) [05:06]
11. Omar Sosa - Ponlo Debajo Mierda (Put it Down, Man, Shit) [04:22]
12. Omar Sosa - Para Dos (For Two) [03:43]
 
Log EAC
Exact Audio Copy V1.0 beta 1 from 15. November 2010
EAC extraction logfile from 14. November 2011, 15:58
Omar Sosa / Free Roots
Used drive : HL-DT-STDVD-ROM GDR8161B Adapter: 0 ID: 1
Read mode : Secure
Utilize accurate stream : Yes
Defeat audio cache : Yes
Make use of C2 pointers : No
Read offset correction : 102
Overread into Lead-In and Lead-Out : No
Fill up missing offset samples with silence : Yes
Delete leading and trailing silent blocks : No
Null samples used in CRC calculations : Yes
Used interface : Native Win32 interface for Win NT & 2000
Gap handling : Appended to previous track
Used output format : User Defined Encoder
Selected bitrate : 768 kBit/s
Quality : High
Add ID3 tag : No
Command line compressor : C:\Program Files (x86)\Exact Audio Copy\FLAC\FLAC.EXE
Additional command line options : -8 -V -T "ARTIST=%a" -T "TITLE=%t" -T "ALBUM=%g" -T "DATE=%y" -T "TRACKNUMBER=%n" -T "TOTALTRACKS=%x" -T "GENRE=%m" -T "ALBUMARTIST=%v" -T "ALBUM ARTIST=%v" -T "COMMENT=EAC Secure Mode, Test & Copy, AccurateRip, FLAC -8" %s
TOC of the extracted CD
Track | Start | Length | Start sector | End sector
---------------------------------------------------------
1 | 0:00.00 | 5:22.50 | 0 | 24199
2 | 5:22.50 | 4:17.60 | 24200 | 43534
3 | 9:40.35 | 4:53.20 | 43535 | 65529
4 | 14:33.55 | 6:23.45 | 65530 | 94299
5 | 20:57.25 | 4:38.70 | 94300 | 115219
6 | 25:36.20 | 4:17.70 | 115220 | 134564
7 | 29:54.15 | 5:02.25 | 134565 | 157239
8 | 34:56.40 | 8:52.50 | 157240 | 197189
9 | 43:49.15 | 3:57.45 | 197190 | 215009
10 | 47:46.60 | 5:06.25 | 215010 | 237984
11 | 52:53.10 | 4:22.10 | 237985 | 257644
12 | 57:15.20 | 3:43.25 | 257645 | 274394
Track 1
Filename D:\0_UPL\Omar Sosa - Free Roots\01 - Travieso (Wild Boy).wav
Pre-gap length 0:00:02.00
Peak level 98.8 %
Extraction speed 5.2 X
Track quality 100.0 %
Test CRC 3861D293
Copy CRC 3861D293
Track not present in AccurateRip database
Copy OK
Track 2
Filename D:\0_UPL\Omar Sosa - Free Roots\02 - Fue Mentira (It Was A Lie).wav
Pre-gap length 0:00:01.45
Peak level 98.8 %
Extraction speed 5.8 X
Track quality 100.0 %
Test CRC 5B127A2B
Copy CRC 5B127A2B
Track not present in AccurateRip database
Copy OK
Track 3
Filename D:\0_UPL\Omar Sosa - Free Roots\03 - Buscando La Clave (Finding The Clave).wav
Pre-gap length 0:00:01.55
Peak level 98.8 %
Extraction speed 6.4 X
Track quality 100.0 %
Test CRC 9154DBD2
Copy CRC 9154DBD2
Track not present in AccurateRip database
Copy OK
Track 4
Filename D:\0_UPL\Omar Sosa - Free Roots\04 - Raya (The Line).wav
Pre-gap length 0:00:01.15
Peak level 98.8 %
Extraction speed 7.2 X
Track quality 100.0 %
Test CRC EE4E240F
Copy CRC EE4E240F
Track not present in AccurateRip database
Copy OK
Track 5
Filename D:\0_UPL\Omar Sosa - Free Roots\05 - Cha Cha Du Nord.wav
Pre-gap length 0:00:02.20
Peak level 98.8 %
Extraction speed 6.6 X
Track quality 99.9 %
Test CRC 826378A2
Copy CRC 826378A2
Track not present in AccurateRip database
Copy OK
Track 6
Filename D:\0_UPL\Omar Sosa - Free Roots\06 - Pero No Lo Lei (But I Didn't Read It).wav
Peak level 98.8 %
Extraction speed 7.8 X
Track quality 100.0 %
Test CRC E32A19ED
Copy CRC E32A19ED
Track not present in AccurateRip database
Copy OK
Track 7
Filename D:\0_UPL\Omar Sosa - Free Roots\07 - Mis Tres Notas (My Three Notes).wav
Peak level 97.6 %
Extraction speed 8.3 X
Track quality 100.0 %
Test CRC AFD16806
Copy CRC AFD16806
Track not present in AccurateRip database
Copy OK
Track 8
Filename D:\0_UPL\Omar Sosa - Free Roots\08 - AfroCuEs A Dada.wav
Pre-gap length 0:00:01.13
Peak level 98.8 %
Extraction speed 9.3 X
Track quality 100.0 %
Test CRC 57A58E63
Copy CRC 57A58E63
Track not present in AccurateRip database
Copy OK
Track 9
Filename D:\0_UPL\Omar Sosa - Free Roots\09 - Shirma.wav
Pre-gap length 0:00:02.05
Peak level 98.1 %
Extraction speed 9.1 X
Track quality 100.0 %
Test CRC 50D2304F
Copy CRC 50D2304F
Track not present in AccurateRip database
Copy OK
Track 10
Filename D:\0_UPL\Omar Sosa - Free Roots\10 - Guajira de Capital (Country Girl In The Big City).wav
Peak level 98.7 %
Extraction speed 9.7 X
Track quality 100.0 %
Test CRC E686B329
Copy CRC E686B329
Track not present in AccurateRip database
Copy OK
Track 11
Filename D:\0_UPL\Omar Sosa - Free Roots\11 - Ponlo Debajo Mierda (Put it Down, Man, Shit).wav
Peak level 98.8 %
Extraction speed 9.8 X
Track quality 100.0 %
Test CRC D78F78C1
Copy CRC D78F78C1
Track not present in AccurateRip database
Copy OK
Track 12
Filename D:\0_UPL\Omar Sosa - Free Roots\12 - Para Dos (For Two).wav
Pre-gap length 0:00:02.10
Peak level 97.4 %
Extraction speed 9.8 X
Track quality 100.0 %
Test CRC 8C79FB1F
Copy CRC 8C79FB1F
Track not present in AccurateRip database
Copy OK
None of the tracks are present in the AccurateRip database
No errors occurred
End of status report
==== Log checksum 483A20B33817068B27E634B7447E976F8FB4FD2F88D64BB1520F7D72C313D32F ====
 
CUE
REM GENRE Jazz
REM DATE 1997
REM DISCID BF0E4A0C
REM COMMENT "ExactAudioCopy v1.0b1"
PERFORMER "Omar Sosa"
TITLE "Free Roots"
FILE "01 - Travieso (Wild Boy).wav" WAVE
TRACK 01 AUDIO
TITLE "Travieso (Wild Boy)"
PERFORMER "Omar Sosa"
INDEX 01 00:00:00
TRACK 02 AUDIO
TITLE "Fue Mentira (It Was A Lie)"
PERFORMER "Omar Sosa"
INDEX 00 05:21:05
FILE "02 - Fue Mentira (It Was A Lie).wav" WAVE
INDEX 01 00:00:00
TRACK 03 AUDIO
TITLE "Buscando La Clave (Finding The Clave)"
PERFORMER "Omar Sosa"
INDEX 00 04:16:05
FILE "03 - Buscando La Clave (Finding The Clave).wav" WAVE
INDEX 01 00:00:00
TRACK 04 AUDIO
TITLE "Raya (The Line)"
PERFORMER "Omar Sosa"
INDEX 00 04:52:05
FILE "04 - Raya (The Line).wav" WAVE
INDEX 01 00:00:00
TRACK 05 AUDIO
TITLE "Cha Cha Du Nord"
PERFORMER "Omar Sosa"
INDEX 00 06:21:25
FILE "05 - Cha Cha Du Nord.wav" WAVE
INDEX 01 00:00:00
FILE "06 - Pero No Lo Lei (But I Didn't Read It).wav" WAVE
TRACK 06 AUDIO
TITLE "Pero No Lo Lei (But I Didn't Read It)"
PERFORMER "Omar Sosa"
INDEX 01 00:00:00
FILE "07 - Mis Tres Notas (My Three Notes).wav" WAVE
TRACK 07 AUDIO
TITLE "Mis Tres Notas (My Three Notes)"
PERFORMER "Omar Sosa"
INDEX 01 00:00:00
TRACK 08 AUDIO
TITLE "AfroCuEs A Dada"
PERFORMER "Omar Sosa"
INDEX 00 05:01:12
FILE "08 - AfroCuEs A Dada.wav" WAVE
INDEX 01 00:00:00
TRACK 09 AUDIO
TITLE "Shirma"
PERFORMER "Omar Sosa"
INDEX 00 08:50:45
FILE "09 - Shirma.wav" WAVE
INDEX 01 00:00:00
FILE "10 - Guajira de Capital (Country Girl In The Big City).wav" WAVE
TRACK 10 AUDIO
TITLE "Guajira de Capital (Country Girl In The Big City)"
PERFORMER "Omar Sosa"
INDEX 01 00:00:00
FILE "11 - Ponlo Debajo Mierda (Put it Down, Man, Shit).wav" WAVE
TRACK 11 AUDIO
TITLE "Ponlo Debajo Mierda (Put it Down, Man, Shit)"
PERFORMER "Omar Sosa"
INDEX 01 00:00:00
TRACK 12 AUDIO
TITLE "Para Dos (For Two)"
PERFORMER "Omar Sosa"
INDEX 00 04:20:00
FILE "12 - Para Dos (For Two).wav" WAVE
INDEX 01 00:00:00
 
2000 - Bembon (SKP 9009-2)

Продолжительность: 01:05:24
01. Omar Sosa - Bembon [03:42]
02. Omar Sosa - Two Cha Du Nord [03:40]
03. Omar Sosa - Negros [04:29]
04. Omar Sosa - Para Dos Parados [06:23]
05. Omar Sosa - Lapiz En Pigalle [07:09]
06. Omar Sosa - Marimchacha [05:03]
07. Omar Sosa - Dame Un Tiempo [10:10]
08. Omar Sosa - Campos Verdes [07:36]
09. Omar Sosa - Narcisa Con Yalode [05:46]
10. Omar Sosa - Torbelegg [05:22]
11. Omar Sosa - Gracias Senor [05:58]
 
log and sheet
 
Log
Exact Audio Copy V0.99 prebeta 4 from 23. January 2008
EAC extraction logfile from 6. September 2008, 23:35
Omar Sosa / Bembon
Used drive : HL-DT-STDVDRAM GSA-H42N Adapter: 0 ID: 0
Read mode : Secure
Utilize accurate stream : Yes
Defeat audio cache : Yes
Make use of C2 pointers : No
Read offset correction : 667
Overread into Lead-In and Lead-Out : No
Fill up missing offset samples with silence : Yes
Delete leading and trailing silent blocks : No
Null samples used in CRC calculations : Yes
Used interface : Installed external ASPI interface
Gap handling : Appended to previous track
Used output format : User Defined Encoder
Selected bitrate : 1024 kBit/s
Quality : High
Add ID3 tag : No
Command line compressor : C:\Programme\Exact Audio Copy\FLAC\FLAC.EXE
Additional command line options : -8 -V -T "ARTIST=%a" -T "TITLE=%t" -T "ALBUM=%g" -T "DATE=%y" -T "TRACKNUMBER=%n" -T "GENRE=%m" -T "COMMENT=EAC FLAC -8" %s
TOC of the extracted CD
Track | Start | Length | Start sector | End sector
---------------------------------------------------------
1 | 0:00.00 | 3:42.65 | 0 | 16714
2 | 3:42.65 | 3:40.07 | 16715 | 33221
3 | 7:22.72 | 4:29.50 | 33222 | 53446
4 | 11:52.47 | 6:23.18 | 53447 | 82189
5 | 18:15.65 | 7:09.62 | 82190 | 114426
6 | 25:25.52 | 5:03.28 | 114427 | 137179
7 | 30:29.05 | 10:10.72 | 137180 | 183001
8 | 40:40.02 | 7:36.50 | 183002 | 217251
9 | 48:16.52 | 5:46.73 | 217252 | 243274
10 | 54:03.50 | 5:22.35 | 243275 | 267459
11 | 59:26.10 | 5:58.10 | 267460 | 294319
Track 1
Filename D:\EAC\01 - Bembon.wav
Pre-gap length 0:00:02.00
Peak level 99.4 %
Track quality 100.0 %
Test CRC 71D7C46D
Copy CRC 71D7C46D
Copy OK
Track 2
Filename D:\EAC\02 - Two Cha Du Nord.wav
Pre-gap length 0:00:01.57
Peak level 100.0 %
Track quality 100.0 %
Test CRC 5C209647
Copy CRC 5C209647
Copy OK
Track 3
Filename D:\EAC\03 - Negros.wav
Pre-gap length 0:00:01.66
Peak level 99.4 %
Track quality 100.0 %
Test CRC CD3C15E1
Copy CRC CD3C15E1
Copy OK
Track 4
Filename D:\EAC\04 - Para Dos Parados.wav
Pre-gap length 0:00:01.53
Peak level 97.7 %
Track quality 100.0 %
Test CRC 7668FE2F
Copy CRC 7668FE2F
Copy OK
Track 5
Filename D:\EAC\05 - Lapiz En Pigalle.wav
Pre-gap length 0:00:01.53
Peak level 98.2 %
Track quality 100.0 %
Test CRC 4DA34700
Copy CRC 4DA34700
Copy OK
Track 6
Filename D:\EAC\06 - Marimchacha.wav
Pre-gap length 0:00:01.60
Peak level 98.2 %
Track quality 100.0 %
Test CRC 30DAB5A2
Copy CRC 30DAB5A2
Copy OK
Track 7
Filename D:\EAC\07 - Dame Un Tiempo.wav
Pre-gap length 0:00:01.64
Peak level 99.4 %
Track quality 100.0 %
Test CRC 1A3C7912
Copy CRC 1A3C7912
Copy OK
Track 8
Filename D:\EAC\08 - Campos Verdes.wav
Pre-gap length 0:00:01.60
Peak level 99.4 %
Track quality 100.0 %
Test CRC 242E0B04
Copy CRC 242E0B04
Copy OK
Track 9
Filename D:\EAC\09 - Narcisa Con Yalode.wav
Pre-gap length 0:00:01.60
Peak level 99.4 %
Track quality 100.0 %
Test CRC C33BB8CB
Copy CRC C33BB8CB
Copy OK
Track 10
Filename D:\EAC\10 - Torbelegg.wav
Pre-gap length 0:00:01.60
Peak level 99.4 %
Track quality 100.0 %
Test CRC 5CA02906
Copy CRC 5CA02906
Copy OK
Track 11
Filename D:\EAC\11 - Gracias Senor.wav
Pre-gap length 0:00:01.84
Peak level 91.6 %
Track quality 100.0 %
Test CRC 94DC0610
Copy CRC 94DC0610
Copy OK
No errors occurred
End of status report
 
CUE
REM GENRE Latin
REM DATE 2000
REM DISCID 9A0F540B
REM COMMENT "ExactAudioCopy v0.99pb4"
PERFORMER "Omar Sosa"
TITLE "Bembon"
FILE "01 - Bembon.wav" WAVE
TRACK 01 AUDIO
TITLE "Bembon"
PERFORMER "Omar Sosa"
INDEX 01 00:00:00
TRACK 02 AUDIO
TITLE "Two Cha Du Nord"
PERFORMER "Omar Sosa"
INDEX 00 03:41:22
FILE "02 - Two Cha Du Nord.wav" WAVE
INDEX 01 00:00:00
TRACK 03 AUDIO
TITLE "Negros"
PERFORMER "Omar Sosa"
INDEX 00 03:38:32
FILE "03 - Negros.wav" WAVE
INDEX 01 00:00:00
TRACK 04 AUDIO
TITLE "Para Dos Parados"
PERFORMER "Omar Sosa"
INDEX 00 04:28:10
FILE "04 - Para Dos Parados.wav" WAVE
INDEX 01 00:00:00
TRACK 05 AUDIO
TITLE "Lapiz En Pigalle"
PERFORMER "Omar Sosa"
INDEX 00 06:21:53
FILE "05 - Lapiz En Pigalle.wav" WAVE
INDEX 01 00:00:00
TRACK 06 AUDIO
TITLE "Marimchacha"
PERFORMER "Omar Sosa"
INDEX 00 07:08:17
FILE "06 - Marimchacha.wav" WAVE
INDEX 01 00:00:00
TRACK 07 AUDIO
TITLE "Dame Un Tiempo"
PERFORMER "Omar Sosa"
INDEX 00 05:01:55
FILE "07 - Dame Un Tiempo.wav" WAVE
INDEX 01 00:00:00
TRACK 08 AUDIO
TITLE "Campos Verdes"
PERFORMER "Omar Sosa"
INDEX 00 10:09:27
FILE "08 - Campos Verdes.wav" WAVE
INDEX 01 00:00:00
TRACK 09 AUDIO
TITLE "Narcisa Con Yalode"
PERFORMER "Omar Sosa"
INDEX 00 07:35:05
FILE "09 - Narcisa Con Yalode.wav" WAVE
INDEX 01 00:00:00
TRACK 10 AUDIO
TITLE "Torbelegg"
PERFORMER "Omar Sosa"
INDEX 00 05:45:28
FILE "10 - Torbelegg.wav" WAVE
INDEX 01 00:00:00
TRACK 11 AUDIO
TITLE "Gracias Senor"
PERFORMER "Omar Sosa"
INDEX 00 05:20:47
FILE "11 - Gracias Senor.wav" WAVE
INDEX 01 00:00:00
 
2001 - Prietos (MSCD 007)
Продолжительность: 57 min 34 sec
01 - Elegguб [03:59]
02 - Takes a second [05:12]
03 - Mother Africa [07:14]
04 - Niсo Divino [03:32]
05 - Cha-Amarillo [04:24]
06 - Sleeping Lion [06:09]
07 - Blanco En Africa [05:50]
08 - Twice As Sad [02:53]
09 - Why so complicated? [04:21]
10 - Fragile [03:17]
11 - Desde Allб [05:42]
12 - Prietos [02:40]
13 - Misa [02:16]
 
Log EAC
Exact Audio Copy V0.99 prebeta 5 from 4. May 2009
EAC extraction logfile from 6. May 2010, 14:17
Omar Sosa / Prietos
Used drive : ASUS DRW-2014L1 Adapter: 1 ID: 1
Read mode : Secure
Utilize accurate stream : Yes
Defeat audio cache : Yes
Make use of C2 pointers : No
Read offset correction : 6
Overread into Lead-In and Lead-Out : No
Fill up missing offset samples with silence : Yes
Delete leading and trailing silent blocks : No
Null samples used in CRC calculations : Yes
Used interface : Native Win32 interface for Win NT & 2000
Gap handling : Appended to previous track
Used output format : User Defined Encoder
Selected bitrate : 32 kBit/s
Quality : High
Add ID3 tag : No
Command line compressor : C:\Program Files\FLAC\flac.exe
Additional command line options : -5 -V -T "ARTIST=%a" -T "TITLE=%t" -T "ALBUM=%g" -T "DATE=%y" -T "TRACKNUMBER=%n" -T "GENRE=%m" -T "COMMENT=Ripped by andygrakoff aka yetiisyou" %s
TOC of the extracted CD
Track | Start | Length | Start sector | End sector
---------------------------------------------------------
1 | 0:00.00 | 3:59.02 | 0 | 17926
2 | 3:59.02 | 5:12.59 | 17927 | 41385
3 | 9:11.61 | 7:14.63 | 41386 | 73998
4 | 16:26.49 | 3:32.18 | 73999 | 89916
5 | 19:58.67 | 4:24.34 | 89917 | 109750
6 | 24:23.26 | 6:09.07 | 109751 | 137432
7 | 30:32.33 | 5:50.34 | 137433 | 163716
8 | 36:22.67 | 2:53.32 | 163717 | 176723
9 | 39:16.24 | 4:21.48 | 176724 | 196346
10 | 43:37.72 | 3:17.47 | 196347 | 211168
11 | 46:55.44 | 5:42.21 | 211169 | 236839
12 | 52:37.65 | 2:40.20 | 236840 | 248859
13 | 55:18.10 | 2:16.63 | 248860 | 259122
Track 1
Filename K:\Omar Sosa - Prietos (MSCD 007) 2001\01 – Elegguб.wav
Pre-gap length 0:00:02.00
Peak level 99.6 %
Track quality 100.0 %
Test CRC 34A98231
Copy CRC 34A98231
Track not present in AccurateRip database
Copy OK
Track 2
Filename K:\Omar Sosa - Prietos (MSCD 007) 2001\02 – Takes a second.wav
Peak level 99.6 %
Track quality 99.9 %
Test CRC 0B867619
Copy CRC 0B867619
Track not present in AccurateRip database
Copy OK
Track 3
Filename K:\Omar Sosa - Prietos (MSCD 007) 2001\03 – Mother Africa.wav
Peak level 99.6 %
Track quality 100.0 %
Test CRC 950EF957
Copy CRC 950EF957
Track not present in AccurateRip database
Copy OK
Track 4
Filename K:\Omar Sosa - Prietos (MSCD 007) 2001\04 – Niсo Divino.wav
Peak level 99.6 %
Track quality 100.0 %
Test CRC 547AC9E2
Copy CRC 547AC9E2
Track not present in AccurateRip database
Copy OK
Track 5
Filename K:\Omar Sosa - Prietos (MSCD 007) 2001\05 – Cha-Amarillo.wav
Peak level 99.6 %
Track quality 100.0 %
Test CRC 1C8A6784
Copy CRC 1C8A6784
Track not present in AccurateRip database
Copy OK
Track 6
Filename K:\Omar Sosa - Prietos (MSCD 007) 2001\06 – Sleeping Lion.wav
Peak level 99.6 %
Track quality 100.0 %
Test CRC DF7D1931
Copy CRC DF7D1931
Track not present in AccurateRip database
Copy OK
Track 7
Filename K:\Omar Sosa - Prietos (MSCD 007) 2001\07 – Blanco En Africa.wav
Peak level 99.6 %
Track quality 100.0 %
Test CRC F06B5CD7
Copy CRC F06B5CD7
Track not present in AccurateRip database
Copy OK
Track 8
Filename K:\Omar Sosa - Prietos (MSCD 007) 2001\08 – Twice As Sad.wav
Peak level 99.6 %
Track quality 100.0 %
Test CRC 5E86FE22
Copy CRC 5E86FE22
Track not present in AccurateRip database
Copy OK
Track 9
Filename K:\Omar Sosa - Prietos (MSCD 007) 2001\09 – Why so complicated .wav
Peak level 99.6 %
Track quality 99.9 %
Test CRC 148EF269
Copy CRC 148EF269
Track not present in AccurateRip database
Copy OK
Track 10
Filename K:\Omar Sosa - Prietos (MSCD 007) 2001\10 – Fragile.wav
Peak level 99.6 %
Track quality 100.0 %
Test CRC F21C5D1E
Copy CRC F21C5D1E
Track not present in AccurateRip database
Copy OK
Track 11
Filename K:\Omar Sosa - Prietos (MSCD 007) 2001\11 – Desde Allб.wav
Peak level 99.6 %
Track quality 100.0 %
Test CRC D9B7D621
Copy CRC D9B7D621
Track not present in AccurateRip database
Copy OK
Track 12
Filename K:\Omar Sosa - Prietos (MSCD 007) 2001\12 – Prietos.wav
Peak level 99.6 %
Track quality 100.0 %
Test CRC 5DF0DE2B
Copy CRC 5DF0DE2B
Track not present in AccurateRip database
Copy OK
Track 13
Filename K:\Omar Sosa - Prietos (MSCD 007) 2001\13 – Misa.wav
Peak level 99.6 %
Track quality 99.9 %
Test CRC EC5056BD
Copy CRC EC5056BD
Track not present in AccurateRip database
Copy OK
None of the tracks are present in the AccurateRip database
No errors occurred
End of status report
 
CUE
REM GENRE Latin
REM DATE 2001
REM DISCID B10D7E0D
REM COMMENT "ExactAudioCopy v0.99pb5"
PERFORMER "Omar Sosa"
TITLE "Prietos"
FILE "01 – Elegguб.wav" WAVE
TRACK 01 AUDIO
TITLE "Elegguб"
PERFORMER "Omar Sosa"
INDEX 01 00:00:00
FILE "02 – Takes a second.wav" WAVE
TRACK 02 AUDIO
TITLE "Takes a second"
PERFORMER "Omar Sosa"
INDEX 01 00:00:00
FILE "03 – Mother Africa.wav" WAVE
TRACK 03 AUDIO
TITLE "Mother Africa"
PERFORMER "Omar Sosa"
INDEX 01 00:00:00
FILE "04 – Niсo Divino.wav" WAVE
TRACK 04 AUDIO
TITLE "Niсo Divino"
PERFORMER "Omar Sosa"
INDEX 01 00:00:00
FILE "05 – Cha-Amarillo.wav" WAVE
TRACK 05 AUDIO
TITLE "Cha-Amarillo"
PERFORMER "Omar Sosa"
INDEX 01 00:00:00
FILE "06 – Sleeping Lion.wav" WAVE
TRACK 06 AUDIO
TITLE "Sleeping Lion"
PERFORMER "Omar Sosa"
INDEX 01 00:00:00
FILE "07 – Blanco En Africa.wav" WAVE
TRACK 07 AUDIO
TITLE "Blanco En Africa"
PERFORMER "Omar Sosa"
INDEX 01 00:00:00
FILE "08 – Twice As Sad.wav" WAVE
TRACK 08 AUDIO
TITLE "Twice As Sad"
PERFORMER "Omar Sosa"
INDEX 01 00:00:00
FILE "09 – Why so complicated .wav" WAVE
TRACK 09 AUDIO
TITLE "Why so complicated?"
PERFORMER "Omar Sosa"
INDEX 01 00:00:00
FILE "10 – Fragile.wav" WAVE
TRACK 10 AUDIO
TITLE "Fragile"
PERFORMER "Omar Sosa"
INDEX 01 00:00:00
FILE "11 – Desde Allб.wav" WAVE
TRACK 11 AUDIO
TITLE "Desde Allб"
PERFORMER "Omar Sosa"
INDEX 01 00:00:00
FILE "12 – Prietos.wav" WAVE
TRACK 12 AUDIO
TITLE "Prietos"
PERFORMER "Omar Sosa"
INDEX 01 00:00:00
FILE "13 – Misa.wav" WAVE
TRACK 13 AUDIO
TITLE "Misa"
PERFORMER "Omar Sosa"
INDEX 01 00:00:00
 
2002 - Sentir (WVF479053)
Продолжительность: 57 min 49 sec
01 - Opening for Elleguá [02:15]
02 - Sucesion en Blanco [05:46]
03 - Rojo Changó [03:31]
04 - Manto Blanco [03:31]
05 - Toridanzón [04:25]
06 - Azul Yemayá [06:31]
07 - Oda al Negro [04:03]
08 - Sister in Yellow [05:53]
09 - Cielo y Mar Azules [02:56]
10 - Tres Notas en Amarillo [05:28]
11 - Rojo y Negro [05:37]
12 - Eggun [03:51]
13 - Sentir [03:57]
 
Log EAC
Exact Audio Copy V0.99 prebeta 5 from 4. May 2009
EAC extraction logfile from 19. April 2010, 23:02
Omar Sosa / Sentir
Used drive : ATAPI iHAS122 8 Adapter: 0 ID: 0
Read mode : Secure
Utilize accurate stream : Yes
Defeat audio cache : Yes
Make use of C2 pointers : No
Read offset correction : 6
Overread into Lead-In and Lead-Out : No
Fill up missing offset samples with silence : Yes
Delete leading and trailing silent blocks : No
Null samples used in CRC calculations : Yes
Used interface : Native Win32 interface for Win NT & 2000
Gap handling : Appended to previous track
Used output format : User Defined Encoder
Selected bitrate : 128 kBit/s
Quality : High
Add ID3 tag : No
Command line compressor : C:\Program Files (x86)\Exact Audio Copy\Flac\flac.exe
Additional command line options : -V -8 -T "artist=%a" -T "title=%t" -T "album=%g" -T "date=%y" -T "tracknumber=%n" -T "genre=%m" %s
TOC of the extracted CD
Track | Start | Length | Start sector | End sector
---------------------------------------------------------
1 | 0:00.00 | 2:15.67 | 0 | 10191
2 | 2:15.67 | 5:46.22 | 10192 | 36163
3 | 8:02.14 | 3:31.68 | 36164 | 52056
4 | 11:34.07 | 3:31.19 | 52057 | 67900
5 | 15:05.26 | 4:25.22 | 67901 | 87797
6 | 19:30.48 | 6:31.34 | 87798 | 117156
7 | 26:02.07 | 4:03.25 | 117157 | 135406
8 | 30:05.32 | 5:53.01 | 135407 | 161882
9 | 35:58.33 | 2:56.38 | 161883 | 175120
10 | 38:54.71 | 5:28.74 | 175121 | 199794
11 | 44:23.70 | 5:37.08 | 199795 | 225077
12 | 50:01.03 | 3:51.64 | 225078 | 242466
13 | 53:52.67 | 3:57.07 | 242467 | 260248
Track 1
Filename E:\RIP\Omar Sosa - (2002) Sentir [FLAC]\01 - Opening for Elleguб.wav
Pre-gap length 0:00:02.00
Peak level 98.8 %
Track quality 100.0 %
Test CRC 49FEC292
Copy CRC 49FEC292
Track not present in AccurateRip database
Copy OK
Track 2
Filename E:\RIP\Omar Sosa - (2002) Sentir [FLAC]\02 - Sucesion en Blanco.wav
Peak level 98.8 %
Track quality 100.0 %
Test CRC FD044E65
Copy CRC FD044E65
Track not present in AccurateRip database
Copy OK
Track 3
Filename E:\RIP\Omar Sosa - (2002) Sentir [FLAC]\03 - Rojo Changу.wav
Pre-gap length 0:00:01.32
Peak level 98.8 %
Track quality 100.0 %
Test CRC EE4EC909
Copy CRC EE4EC909
Track not present in AccurateRip database
Copy OK
Track 4
Filename E:\RIP\Omar Sosa - (2002) Sentir [FLAC]\04 - Manto Blanco.wav
Pre-gap length 0:00:02.32
Peak level 98.8 %
Track quality 100.0 %
Test CRC E4595E39
Copy CRC E4595E39
Track not present in AccurateRip database
Copy OK
Track 5
Filename E:\RIP\Omar Sosa - (2002) Sentir [FLAC]\05 - Toridanzуn.wav
Pre-gap length 0:00:03.02
Peak level 98.8 %
Track quality 100.0 %
Test CRC 596709C4
Copy CRC 596709C4
Track not present in AccurateRip database
Copy OK
Track 6
Filename E:\RIP\Omar Sosa - (2002) Sentir [FLAC]\06 - Azul Yemayб.wav
Peak level 98.8 %
Track quality 100.0 %
Test CRC 35759465
Copy CRC 35759465
Track not present in AccurateRip database
Copy OK
Track 7
Filename E:\RIP\Omar Sosa - (2002) Sentir [FLAC]\07 - Oda al Negro.wav
Pre-gap length 0:00:02.24
Peak level 98.8 %
Track quality 100.0 %
Test CRC CF76F31D
Copy CRC CF76F31D
Track not present in AccurateRip database
Copy OK
Track 8
Filename E:\RIP\Omar Sosa - (2002) Sentir [FLAC]\08 - Sister in Yellow.wav
Peak level 98.8 %
Track quality 100.0 %
Test CRC 4EC3EC71
Copy CRC 4EC3EC71
Track not present in AccurateRip database
Copy OK
Track 9
Filename E:\RIP\Omar Sosa - (2002) Sentir [FLAC]\09 - Cielo y Mar Azules.wav
Pre-gap length 0:00:04.29
Peak level 98.8 %
Track quality 100.0 %
Test CRC FA90E4B7
Copy CRC FA90E4B7
Track not present in AccurateRip database
Copy OK
Track 10
Filename E:\RIP\Omar Sosa - (2002) Sentir [FLAC]\10 - Tres Notas en Amarillo.wav
Pre-gap length 0:00:03.32
Peak level 98.8 %
Track quality 100.0 %
Test CRC E77F02A0
Copy CRC E77F02A0
Track not present in AccurateRip database
Copy OK
Track 11
Filename E:\RIP\Omar Sosa - (2002) Sentir [FLAC]\11 - Rojo y Negro.wav
Pre-gap length 0:00:01.56
Peak level 98.8 %
Track quality 100.0 %
Test CRC 77B25C84
Copy CRC 77B25C84
Track not present in AccurateRip database
Copy OK
Track 12
Filename E:\RIP\Omar Sosa - (2002) Sentir [FLAC]\12 - Eggun.wav
Pre-gap length 0:00:03.04
Peak level 98.8 %
Track quality 100.0 %
Test CRC 9417AEBC
Copy CRC 9417AEBC
Track not present in AccurateRip database
Copy OK
Track 13
Filename E:\RIP\Omar Sosa - (2002) Sentir [FLAC]\13 - Sentir.wav
Pre-gap length 0:00:04.08
Peak level 98.8 %
Track quality 99.9 %
Test CRC 3D949878
Copy CRC 3D949878
Track not present in AccurateRip database
Copy OK
None of the tracks are present in the AccurateRip database
No errors occurred
End of status report
 
CUE
REM GENRE Folklore
REM DATE 2002
REM DISCID A90D8D0D
REM COMMENT "ExactAudioCopy v0.99pb5"
FILE "01 - Opening for Elleguб.wav" WAVE
TRACK 01 AUDIO
INDEX 01 00:00:00
FILE "02 - Sucesion en Blanco.wav" WAVE
TRACK 02 AUDIO
INDEX 01 00:00:00
TRACK 03 AUDIO
INDEX 00 05:44:73
FILE "03 - Rojo Changу.wav" WAVE
INDEX 01 00:00:00
TRACK 04 AUDIO
INDEX 00 03:29:44
FILE "04 - Manto Blanco.wav" WAVE
INDEX 01 00:00:00
TRACK 05 AUDIO
INDEX 00 03:28:17
FILE "05 - Toridanzуn.wav" WAVE
INDEX 01 00:00:00
FILE "06 - Azul Yemayб.wav" WAVE
TRACK 06 AUDIO
INDEX 01 00:00:00
TRACK 07 AUDIO
INDEX 00 06:29:16
FILE "07 - Oda al Negro.wav" WAVE
INDEX 01 00:00:00
FILE "08 - Sister in Yellow.wav" WAVE
TRACK 08 AUDIO
INDEX 01 00:00:00
TRACK 09 AUDIO
INDEX 00 05:48:54
FILE "09 - Cielo y Mar Azules.wav" WAVE
INDEX 01 00:00:00
TRACK 10 AUDIO
INDEX 00 02:53:14
FILE "10 - Tres Notas en Amarillo.wav" WAVE
INDEX 01 00:00:00
TRACK 11 AUDIO
INDEX 00 05:27:32
FILE "11 - Rojo y Negro.wav" WAVE
INDEX 01 00:00:00
TRACK 12 AUDIO
INDEX 00 05:34:05
FILE "12 - Eggun.wav" WAVE
INDEX 01 00:00:00
TRACK 13 AUDIO
INDEX 00 03:47:58
FILE "13 - Sentir.wav" WAVE
INDEX 01 00:00:00
 
2003 - Ayaguna (SKP 9034-2)

Продолжительность: 01:03:19
01. Omar Sosa - Black Reflection [07:26]
02. Omar Sosa - Una Tradicion Negra [08:08]
03. Omar Sosa - Iyawo [02:31]
04. Omar Sosa - Dias de Iyawo [08:48]
05. Omar Sosa - Africa Madre Viva [06:13]
06. Omar Sosa - Trip in the White Scarf [07:44]
07. Omar Sosa - Toridanzon [06:09]
08. Omar Sosa - Elggua in the Road [09:02]
09. Omar Sosa - My Three Notes [07:14]
 
log and sheet
 
Log
Exact Audio Copy V1.0 beta 1 from 15. November 2010
EAC extraction logfile from 5. May 2012, 11:28
Omar Sosa / Ayaguna
Used drive : HL-DT-STDVD-ROM GDR8161B Adapter: 0 ID: 1
Read mode : Secure
Utilize accurate stream : Yes
Defeat audio cache : Yes
Make use of C2 pointers : No
Read offset correction : 102
Overread into Lead-In and Lead-Out : No
Fill up missing offset samples with silence : Yes
Delete leading and trailing silent blocks : No
Null samples used in CRC calculations : Yes
Used interface : Native Win32 interface for Win NT & 2000
Gap handling : Appended to previous track
Used output format : User Defined Encoder
Selected bitrate : 768 kBit/s
Quality : High
Add ID3 tag : No
Command line compressor : C:\Program Files (x86)\Exact Audio Copy\FLAC\FLAC.EXE
Additional command line options : -8 -V -T "ARTIST=%a" -T "TITLE=%t" -T "ALBUM=%g" -T "DATE=%y" -T "TRACKNUMBER=%n" -T "TOTALTRACKS=%x" -T "GENRE=%m" -T "ALBUMARTIST=%v" -T "ALBUM ARTIST=%v" -T "COMMENT=EAC Secure Mode, Test & Copy, AccurateRip, FLAC -8" %s
TOC of the extracted CD
Track | Start | Length | Start sector | End sector
---------------------------------------------------------
1 | 0:00.00 | 7:26.65 | 0 | 33514
2 | 7:26.65 | 8:08.13 | 33515 | 70127
3 | 15:35.03 | 2:31.67 | 70128 | 81519
4 | 18:06.70 | 8:48.56 | 81520 | 121175
5 | 26:55.51 | 6:13.34 | 121176 | 149184
6 | 33:09.10 | 7:44.28 | 149185 | 184012
7 | 40:53.38 | 6:09.48 | 184013 | 211735
8 | 47:03.11 | 9:02.20 | 211736 | 252405
9 | 56:05.31 | 7:14.33 | 252406 | 284988
10 | 65:51.64 | 12:08.13 | 296389 | 351001
Track 1
Filename D:\0_UPL\Omar Sosa - Ayaguna\01 - Black Reflection.wav
Pre-gap length 0:00:02.00
Peak level 98.8 %
Extraction speed 5.5 X
Track quality 100.0 %
Test CRC 6FA87105
Copy CRC 6FA87105
Accurately ripped (confidence 2) [6E8090BA]
Copy OK
Track 2
Filename D:\0_UPL\Omar Sosa - Ayaguna\02 - Una Tradicion Negra.wav
Peak level 98.8 %
Extraction speed 6.5 X
Track quality 100.0 %
Test CRC 18F0722D
Copy CRC 18F0722D
Accurately ripped (confidence 2) [88704DAB]
Copy OK
Track 3
Filename D:\0_UPL\Omar Sosa - Ayaguna\03 - Iyawo.wav
Peak level 96.1 %
Extraction speed 6.0 X
Track quality 100.0 %
Test CRC B8030297
Copy CRC B8030297
Accurately ripped (confidence 2) [5593C2D2]
Copy OK
Track 4
Filename D:\0_UPL\Omar Sosa - Ayaguna\04 - Dias de Iyawo.wav
Peak level 96.2 %
Extraction speed 7.5 X
Track quality 100.0 %
Test CRC D9826018
Copy CRC D9826018
Accurately ripped (confidence 2) [91A247E1]
Copy OK
Track 5
Filename D:\0_UPL\Omar Sosa - Ayaguna\05 - Africa Madre Viva.wav
Peak level 98.8 %
Extraction speed 7.9 X
Track quality 100.0 %
Test CRC EEABF6B6
Copy CRC EEABF6B6
Accurately ripped (confidence 2) [3A82F449]
Copy OK
Track 6
Filename D:\0_UPL\Omar Sosa - Ayaguna\06 - Trip in the White Scarf.wav
Peak level 98.8 %
Extraction speed 8.6 X
Track quality 100.0 %
Test CRC 9C0226CA
Copy CRC 9C0226CA
Accurately ripped (confidence 2) [827EA4A9]
Copy OK
Track 7
Filename D:\0_UPL\Omar Sosa - Ayaguna\07 - Toridanzon.wav
Peak level 98.8 %
Extraction speed 8.8 X
Track quality 100.0 %
Test CRC 5A738E7B
Copy CRC 5A738E7B
Accurately ripped (confidence 2) [F0D92AC1]
Copy OK
Track 8
Filename D:\0_UPL\Omar Sosa - Ayaguna\08 - Elggua in the Road.wav
Peak level 98.8 %
Extraction speed 9.0 X
Track quality 99.9 %
Test CRC 288AE3E0
Copy CRC 288AE3E0
Accurately ripped (confidence 2) [F00EA224]
Copy OK
Track 9
Filename D:\0_UPL\Omar Sosa - Ayaguna\09 - My Three Notes.wav
Peak level 98.8 %
Extraction speed 10.0 X
Track quality 100.0 %
Test CRC 5B80254A
Copy CRC 5B80254A
Accurately ripped (confidence 2) [49ED8A08]
Copy OK
All tracks accurately ripped
No errors occurred
End of status report
==== Log checksum 1C9206EE4700AEF8793D02B43CD42BC729FEBA13B730C8274D2E0663B8913C92 ====
 
CUE
REM GENRE Jazz
REM DATE 2003
REM DISCID A112480A
REM COMMENT "ExactAudioCopy v1.0b1"
PERFORMER "Omar Sosa"
TITLE "Ayaguna"
FILE "01 - Black Reflection.wav" WAVE
TRACK 01 AUDIO
TITLE "Black Reflection"
PERFORMER "Omar Sosa"
INDEX 01 00:00:00
FILE "02 - Una Tradicion Negra.wav" WAVE
TRACK 02 AUDIO
TITLE "Una Tradicion Negra"
PERFORMER "Omar Sosa"
INDEX 01 00:00:00
FILE "03 - Iyawo.wav" WAVE
TRACK 03 AUDIO
TITLE "Iyawo"
PERFORMER "Omar Sosa"
INDEX 01 00:00:00
FILE "04 - Dias de Iyawo.wav" WAVE
TRACK 04 AUDIO
TITLE "Dias de Iyawo"
PERFORMER "Omar Sosa"
INDEX 01 00:00:00
FILE "05 - Africa Madre Viva.wav" WAVE
TRACK 05 AUDIO
TITLE "Africa Madre Viva"
PERFORMER "Omar Sosa"
INDEX 01 00:00:00
FILE "06 - Trip in the White Scarf.wav" WAVE
TRACK 06 AUDIO
TITLE "Trip in the White Scarf"
PERFORMER "Omar Sosa"
INDEX 01 00:00:00
FILE "07 - Toridanzon.wav" WAVE
TRACK 07 AUDIO
TITLE "Toridanzon"
PERFORMER "Omar Sosa"
INDEX 01 00:00:00
FILE "08 - Elggua in the Road.wav" WAVE
TRACK 08 AUDIO
TITLE "Elggua in the Road"
PERFORMER "Omar Sosa"
INDEX 01 00:00:00
FILE "09 - My Three Notes.wav" WAVE
TRACK 09 AUDIO
TITLE "My Three Notes"
PERFORMER "Omar Sosa"
INDEX 01 00:00:00
TRACK 10 MODEx/2xxx
TITLE "Bonus Video Track Iyawo (Peace Refrain)"
PERFORMER "Omar Sosa"
INDEX 00 07:14:33
 
VIDEO1
Формат: QuickTime
Видео: Sorenson 1, 360 x 240, 1.500, 1 299 Kbps, 29.970 fps, 0.502 b/px
Аудио: ADPCM, 384 Kbps, CBR, 48.0 KHz, 2 ch.
Продолжительность: 6mn 32s
 
2004 - Mulatos (WVF479054)
Продолжительность: 55 min 32 sec
01 - Ternura [07:30]
02 - Nuevo Manto [06:14]
03 - La Tra [05:46]
04 - Reposo [04:23]
05 - La Llamada [07:27]
06 - Dos Caminos [05:39]
07 - Iyawo [06:23]
08 - L3zero [06:41]
09 - El Consenso [05:25]
 
Log EAC
Exact Audio Copy V1.0 beta 1 from 15. November 2010
EAC extraction logfile from 1. November 2011, 13:44
Omar Sosa / Mulatos
Used drive : HL-DT-STDVD-ROM GDR8161B Adapter: 0 ID: 1
Read mode : Secure
Utilize accurate stream : Yes
Defeat audio cache : Yes
Make use of C2 pointers : No
Read offset correction : 102
Overread into Lead-In and Lead-Out : No
Fill up missing offset samples with silence : Yes
Delete leading and trailing silent blocks : No
Null samples used in CRC calculations : Yes
Used interface : Native Win32 interface for Win NT & 2000
Gap handling : Appended to previous track
Used output format : User Defined Encoder
Selected bitrate : 768 kBit/s
Quality : High
Add ID3 tag : No
Command line compressor : C:\Program Files (x86)\Exact Audio Copy\FLAC\FLAC.EXE
Additional command line options : -8 -V -T "ARTIST=%a" -T "TITLE=%t" -T "ALBUM=%g" -T "DATE=%y" -T "TRACKNUMBER=%n" -T "TOTALTRACKS=%x" -T "GENRE=%m" -T "ALBUMARTIST=%v" -T "ALBUM ARTIST=%v" -T "COMMENT=EAC Secure Mode, Test & Copy, AccurateRip, FLAC -8" %s
TOC of the extracted CD
Track | Start | Length | Start sector | End sector
---------------------------------------------------------
1 | 0:00.00 | 7:30.39 | 0 | 33788
2 | 7:30.39 | 6:14.61 | 33789 | 61899
3 | 13:45.25 | 5:46.16 | 61900 | 87865
4 | 19:31.41 | 4:23.18 | 87866 | 107608
5 | 23:54.59 | 7:27.50 | 107609 | 141183
6 | 31:22.34 | 5:39.00 | 141184 | 166608
7 | 37:01.34 | 6:23.68 | 166609 | 195401
8 | 43:25.27 | 6:41.41 | 195402 | 225517
9 | 50:06.68 | 5:25.40 | 225518 | 249932
Track 1
Filename D:\0_UPL\Omar Sosa - Mulatos\01 - Ternura.wav
Pre-gap length 0:00:02.00
Peak level 100.0 %
Extraction speed 5.6 X
Track quality 100.0 %
Test CRC F75E0A94
Copy CRC F75E0A94
Cannot be verified as accurate (confidence 9) [FFD234B0], AccurateRip returned [B4E98BC6]
Copy OK
Track 2
Filename D:\0_UPL\Omar Sosa - Mulatos\02 - Nuevo Manto.wav
Pre-gap length 0:00:02.71
Peak level 99.9 %
Extraction speed 6.4 X
Track quality 100.0 %
Test CRC E92E8530
Copy CRC E92E8530
Cannot be verified as accurate (confidence 9) [B03C757F], AccurateRip returned [16F8FC8C]
Copy OK
Track 3
Filename D:\0_UPL\Omar Sosa - Mulatos\03 - La Tra.wav
Pre-gap length 0:00:02.58
Peak level 100.0 %
Extraction speed 7.0 X
Track quality 100.0 %
Test CRC 77F847C7
Copy CRC 77F847C7
Cannot be verified as accurate (confidence 9) [4059FEE6], AccurateRip returned [E894B387]
Copy OK
Track 4
Filename D:\0_UPL\Omar Sosa - Mulatos\04 - Reposo.wav
Pre-gap length 0:00:04.12
Peak level 93.2 %
Extraction speed 7.3 X
Track quality 100.0 %
Test CRC 5FE9EF3F
Copy CRC 5FE9EF3F
Cannot be verified as accurate (confidence 9) [DD4809AD], AccurateRip returned [3831B0E5]
Copy OK
Track 5
Filename D:\0_UPL\Omar Sosa - Mulatos\05 - La Llamada.wav
Pre-gap length 0:00:04.35
Peak level 93.8 %
Extraction speed 8.2 X
Track quality 100.0 %
Test CRC 6F8D1BAA
Copy CRC 6F8D1BAA
Cannot be verified as accurate (confidence 9) [7D0FC855], AccurateRip returned [45DE25BA]
Copy OK
Track 6
Filename D:\0_UPL\Omar Sosa - Mulatos\06 - Dos Caminos.wav
Pre-gap length 0:00:01.35
Peak level 100.0 %
Extraction speed 8.6 X
Track quality 100.0 %
Test CRC 744B5DBD
Copy CRC 744B5DBD
Cannot be verified as accurate (confidence 9) [751C1FE8], AccurateRip returned [248777D3]
Copy OK
Track 7
Filename D:\0_UPL\Omar Sosa - Mulatos\07 - Iyawo.wav
Pre-gap length 0:00:02.13
Peak level 98.8 %
Extraction speed 9.1 X
Track quality 100.0 %
Test CRC CC0E6BCA
Copy CRC CC0E6BCA
Cannot be verified as accurate (confidence 9) [A20ED24C], AccurateRip returned [EC605E1C]
Copy OK
Track 8
Filename D:\0_UPL\Omar Sosa - Mulatos\08 - L3zero.wav
Pre-gap length 0:00:01.38
Peak level 94.4 %
Extraction speed 9.6 X
Track quality 100.0 %
Test CRC 98834EB3
Copy CRC 98834EB3
Cannot be verified as accurate (confidence 9) [1CDBD8A2], AccurateRip returned [C138CEAB]
Copy OK
Track 9
Filename D:\0_UPL\Omar Sosa - Mulatos\09 - El Consenso.wav
Pre-gap length 0:00:01.61
Peak level 98.8 %
Extraction speed 9.8 X
Track quality 100.0 %
Test CRC 66D8FD73
Copy CRC 66D8FD73
Cannot be verified as accurate (confidence 9) [BBCE0054], AccurateRip returned [E17E81FF]
Copy OK
No tracks could be verified as accurate
You may have a different pressing from the one(s) in the database
No errors occurred
End of status report
==== Log checksum 8EAF947E31D6360F275B404E73477EF6B88E3DAFECED9B4B8ED991030D39DF27 ====
 
CUE
REM GENRE World
REM DATE 2004
REM DISCID 700D0409
REM COMMENT "ExactAudioCopy v1.0b1"
PERFORMER "Omar Sosa"
TITLE "Mulatos"
FILE "01 - Ternura.wav" WAVE
TRACK 01 AUDIO
TITLE "Ternura"
PERFORMER "Omar Sosa"
INDEX 01 00:00:00
TRACK 02 AUDIO
TITLE "Nuevo Manto"
PERFORMER "Omar Sosa"
INDEX 00 07:27:43
FILE "02 - Nuevo Manto.wav" WAVE
INDEX 01 00:00:00
TRACK 03 AUDIO
TITLE "La Tra"
PERFORMER "Omar Sosa"
INDEX 00 06:12:03
FILE "03 - La Tra.wav" WAVE
INDEX 01 00:00:00
TRACK 04 AUDIO
TITLE "Reposo"
PERFORMER "Omar Sosa"
INDEX 00 05:42:04
FILE "04 - Reposo.wav" WAVE
INDEX 01 00:00:00
TRACK 05 AUDIO
TITLE "La Llamada"
PERFORMER "Omar Sosa"
INDEX 00 04:18:58
FILE "05 - La Llamada.wav" WAVE
INDEX 01 00:00:00
TRACK 06 AUDIO
TITLE "Dos Caminos"
PERFORMER "Omar Sosa"
INDEX 00 07:26:15
FILE "06 - Dos Caminos.wav" WAVE
INDEX 01 00:00:00
TRACK 07 AUDIO
TITLE "Iyawo"
PERFORMER "Omar Sosa"
INDEX 00 05:36:62
FILE "07 - Iyawo.wav" WAVE
INDEX 01 00:00:00
TRACK 08 AUDIO
TITLE "L3zero"
PERFORMER "Omar Sosa"
INDEX 00 06:22:30
FILE "08 - L3zero.wav" WAVE
INDEX 01 00:00:00
TRACK 09 AUDIO
TITLE "El Consenso"
PERFORMER "Omar Sosa"
INDEX 00 06:39:55
FILE "09 - El Consenso.wav" WAVE
INDEX 01 00:00:00
 
2006 - Live a FIP (OTA1017)

Продолжительность: 54:40
1. Omar Sosa - Nuevo Manto [09:11]
2. Omar Sosa - Metisse [07:27]
3. Omar Sosa - African Sunrise [03:52]
4. Omar Sosa - Dos Caminos [06:11]
5. Omar Sosa - Iyawo [05:49]
6. Omar Sosa - El Consenso [10:12]
7. Omar Sosa - Paralelo [07:18]
8. Omar Sosa - Muevete en D [04:37]
 
log and sheet
 
Log
X Lossless Decoder version 20101107 (124.1)
XLD extraction logfile from 2010-11-11 18:52:07 +0100
Omar Sosa / Live a FIP
Used drive : TSSTcorp CD/DVDW SH-W162L (revision LC03)
Use cdparanoia mode : YES (CDParanoia III 10.2 engine)
Disable audio cache : OK for the drive with cache less than 2750KB
Make use of C2 pointers : NO
Read offset correction : 6
Max retry count : 100
Gap status : Analyzed, Appended
TOC of the extracted CD
Track | Start | Length | Start sector | End sector
---------------------------------------------------------
1 | 00:00:00 | 09:11:65 | 0 | 41389
2 | 09:11:65 | 07:27:14 | 41390 | 74928
3 | 16:39:04 | 03:52:17 | 74929 | 92345
4 | 20:31:21 | 06:11:22 | 92346 | 120192
5 | 26:42:43 | 05:49:41 | 120193 | 146408
6 | 32:32:09 | 10:12:12 | 146409 | 192320
7 | 42:44:21 | 07:18:20 | 192321 | 225190
8 | 50:02:41 | 04:37:68 | 225191 | 246033
List of alternate offset correction values
# | Absolute | Relative | Confidence
------------------------------------------
1 | 63 | 57 | 3
All Tracks
Album gain : -6.29 dB
Peak : 1.000000
Track 01
Filename : /Users/borgo/Desktop/RIP/01 - Nuevo Manto.flac
Pre-gap length : 00:02:00
Track gain : -7.64 dB
Peak : 1.000000
CRC32 hash (test run) : ECD9E21A
CRC32 hash : ECD9E21A
CRC32 hash (skip zero) : C6474A35
AccurateRip signature : 9DD85380
->Accurately ripped! (confidence 3)
(matched with the different offset correction value;
calculated using an additional offset of 57;
the signature after correction is: 8FE3517A)
Statistics
Read error : 0
Skipped (treated as error) : 0
Edge jitter error (maybe fixed) : 0
Atom jitter error (maybe fixed) : 0
Drift error (maybe fixed) : 0
Dropped bytes error (maybe fixed) : 0
Duplicated bytes error (maybe fixed) : 0
Inconsistency in error sectors : 0
Track 02
Filename : /Users/borgo/Desktop/RIP/02 - Metisse.flac
Track gain : -6.45 dB
Peak : 1.000000
CRC32 hash (test run) : 452B72A5
CRC32 hash : 452B72A5
CRC32 hash (skip zero) : FA6A2196
AccurateRip signature : 725E07B8
->Accurately ripped! (confidence 3)
(matched with the different offset correction value;
calculated using an additional offset of 57;
the signature after correction is: 8F903997)
Statistics
Read error : 0
Skipped (treated as error) : 0
Edge jitter error (maybe fixed) : 0
Atom jitter error (maybe fixed) : 0
Drift error (maybe fixed) : 0
Dropped bytes error (maybe fixed) : 0
Duplicated bytes error (maybe fixed) : 0
Inconsistency in error sectors : 0
Track 03
Filename : /Users/borgo/Desktop/RIP/03 - African Sunrise.flac
Pre-gap length : 00:04:07
Track gain : -2.76 dB
Peak : 1.000000
CRC32 hash (test run) : 3CAB90F8
CRC32 hash : 3CAB90F8
CRC32 hash (skip zero) : 99721E77
AccurateRip signature : E3764D9B
->Accurately ripped! (confidence 3)
(matched with the different offset correction value;
calculated using an additional offset of 57;
the signature after correction is: 31DDC7B5)
Statistics
Read error : 0
Skipped (treated as error) : 0
Edge jitter error (maybe fixed) : 0
Atom jitter error (maybe fixed) : 0
Drift error (maybe fixed) : 0
Dropped bytes error (maybe fixed) : 0
Duplicated bytes error (maybe fixed) : 0
Inconsistency in error sectors : 0
Track 04
Filename : /Users/borgo/Desktop/RIP/04 - Dos Caminos.flac
Track gain : -6.59 dB
Peak : 1.000000
CRC32 hash (test run) : C6D2A9F2
CRC32 hash : C6D2A9F2
CRC32 hash (skip zero) : B6EE8B6F
AccurateRip signature : 2EC14A7E
->Accurately ripped! (confidence 3)
(matched with the different offset correction value;
calculated using an additional offset of 57;
the signature after correction is: A4FF96E6)
Statistics
Read error : 0
Skipped (treated as error) : 0
Edge jitter error (maybe fixed) : 0
Atom jitter error (maybe fixed) : 0
Drift error (maybe fixed) : 0
Dropped bytes error (maybe fixed) : 0
Duplicated bytes error (maybe fixed) : 0
Inconsistency in error sectors : 0
Track 05
Filename : /Users/borgo/Desktop/RIP/05 - Iyawo.flac
Track gain : -2.97 dB
Peak : 1.000000
CRC32 hash (test run) : 73D04AE2
CRC32 hash : 73D04AE2
CRC32 hash (skip zero) : 47B5ED44
AccurateRip signature : 00043A19
->Accurately ripped! (confidence 3)
(matched with the different offset correction value;
calculated using an additional offset of 57;
the signature after correction is: E32E1D8F)
Statistics
Read error : 0
Skipped (treated as error) : 0
Edge jitter error (maybe fixed) : 0
Atom jitter error (maybe fixed) : 0
Drift error (maybe fixed) : 0
Dropped bytes error (maybe fixed) : 0
Duplicated bytes error (maybe fixed) : 0
Inconsistency in error sectors : 0
Track 06
Filename : /Users/borgo/Desktop/RIP/06 - El Consenso.flac
Track gain : -4.51 dB
Peak : 1.000000
CRC32 hash (test run) : 85699FCC
CRC32 hash : 85699FCC
CRC32 hash (skip zero) : 9DF4C86D
AccurateRip signature : 41939DE7
->Accurately ripped! (confidence 3)
(matched with the different offset correction value;
calculated using an additional offset of 57;
the signature after correction is: EBD9D170)
Statistics
Read error : 0
Skipped (treated as error) : 0
Edge jitter error (maybe fixed) : 0
Atom jitter error (maybe fixed) : 0
Drift error (maybe fixed) : 0
Dropped bytes error (maybe fixed) : 0
Duplicated bytes error (maybe fixed) : 0
Inconsistency in error sectors : 0
Track 07
Filename : /Users/borgo/Desktop/RIP/07 - Paralelo.flac
Track gain : -6.79 dB
Peak : 1.000000
CRC32 hash (test run) : 4EF41BB0
CRC32 hash : 4EF41BB0
CRC32 hash (skip zero) : AB882F33
AccurateRip signature : 2DA57BEE
->Accurately ripped! (confidence 3)
(matched with the different offset correction value;
calculated using an additional offset of 57;
the signature after correction is: 270CD57F)
Statistics
Read error : 0
Skipped (treated as error) : 0
Edge jitter error (maybe fixed) : 0
Atom jitter error (maybe fixed) : 0
Drift error (maybe fixed) : 0
Dropped bytes error (maybe fixed) : 0
Duplicated bytes error (maybe fixed) : 0
Inconsistency in error sectors : 0
Track 08
Filename : /Users/borgo/Desktop/RIP/08 - Muevete en D.flac
Track gain : -5.21 dB
Peak : 1.000000
CRC32 hash (test run) : F42607FD
CRC32 hash : F42607FD
CRC32 hash (skip zero) : F036F5A8
AccurateRip signature : 44FA09D2
->Accurately ripped! (confidence 3)
(matched with the different offset correction value;
calculated using an additional offset of 57;
the signature after correction is: EBC0A48A)
Statistics
Read error : 0
Skipped (treated as error) : 0
Edge jitter error (maybe fixed) : 0
Atom jitter error (maybe fixed) : 0
Drift error (maybe fixed) : 0
Dropped bytes error (maybe fixed) : 0
Duplicated bytes error (maybe fixed) : 0
14:41
571
Нет комментариев. Ваш будет первым!