Поиск

(Fusion, Jazz) Yutaka Yokokura - Another Sun (GRP 96932) 1993 - 1993, FLAC (tracks+.cue)

Треклист:
Yutaka Yokokura - Another Sun
Жанр: Fusion, Jazz
Год выпуска диска: 1993
Производитель диска: Japan \Grp
Аудио кодек: FLAC
Тип рипа: tracks+.cue
Продолжительность: 48:22
01 - Another Sun [04:35]
02 - The Look On Your Face [04:36]
03 - Rain Dance [05:30]
04 - Smile For Me [05:15]
05 - Esta Que Arde La Noche [05:13]
06 - Perfect Love [04:29]
07 - Lembranca [05:52]
08 - More Than Ever [05:01]
09 - Solitaire [04:47]
10 - Dolphine [03:00]
Собственноручный рип с оригинального диска от funky_cat!
 
Log EAC
Exact Audio Copy V0.99 prebeta 5 from 4. May 2009
EAC extraction logfile from 6. May 2010, 10:55
Yutaka Yokokura / Another Sun
Used drive : ASUS DRW-2014L1 Adapter: 1 ID: 1
Read mode : Secure
Utilize accurate stream : Yes
Defeat audio cache : Yes
Make use of C2 pointers : No
Read offset correction : 6
Overread into Lead-In and Lead-Out : No
Fill up missing offset samples with silence : Yes
Delete leading and trailing silent blocks : No
Null samples used in CRC calculations : Yes
Used interface : Native Win32 interface for Win NT & 2000
Gap handling : Appended to previous track
Used output format : User Defined Encoder
Selected bitrate : 32 kBit/s
Quality : High
Add ID3 tag : No
Command line compressor : C:\Program Files\FLAC\flac.exe
Additional command line options : -5 -V -T "ARTIST=%a" -T "TITLE=%t" -T "ALBUM=%g" -T "DATE=%y" -T "TRACKNUMBER=%n" -T "GENRE=%m" -T "COMMENT=Ripped by andygrakoff aka yetiisyou" %s
TOC of the extracted CD
Track | Start | Length | Start sector | End sector
---------------------------------------------------------
1 | 0:00.00 | 4:35.05 | 0 | 20629
2 | 4:35.05 | 4:36.70 | 20630 | 41399
3 | 9:12.00 | 5:30.02 | 41400 | 66151
4 | 14:42.02 | 5:15.45 | 66152 | 89821
5 | 19:57.47 | 5:13.13 | 89822 | 113309
6 | 25:10.60 | 4:29.57 | 113310 | 133541
7 | 29:40.42 | 5:52.35 | 133542 | 159976
8 | 35:33.02 | 5:01.40 | 159977 | 182591
9 | 40:34.42 | 4:47.70 | 182592 | 204186
10 | 45:22.37 | 3:00.10 | 204187 | 217696
Track 1
Filename K:\Yutaka Yokokura - Another Sun (GRP 96932) 1993\01 – Another Sun.wav
Pre-gap length 0:00:02.00
Peak level 98.8 %
Track quality 100.0 %
Test CRC 783E2374
Copy CRC 783E2374
Track not present in AccurateRip database
Copy OK
Track 2
Filename K:\Yutaka Yokokura - Another Sun (GRP 96932) 1993\02 – The Look On Your Face.wav
Peak level 100.0 %
Track quality 99.9 %
Test CRC E122594C
Copy CRC E122594C
Track not present in AccurateRip database
Copy OK
Track 3
Filename K:\Yutaka Yokokura - Another Sun (GRP 96932) 1993\03 – Rain Dance.wav
Peak level 97.0 %
Track quality 100.0 %
Test CRC D11974B6
Copy CRC D11974B6
Track not present in AccurateRip database
Copy OK
Track 4
Filename K:\Yutaka Yokokura - Another Sun (GRP 96932) 1993\04 – Smile For Me.wav
Peak level 97.8 %
Track quality 100.0 %
Test CRC 188F0E0D
Copy CRC 188F0E0D
Track not present in AccurateRip database
Copy OK
Track 5
Filename K:\Yutaka Yokokura - Another Sun (GRP 96932) 1993\05 – Esta Que Arde La Noche.wav
Peak level 99.6 %
Track quality 100.0 %
Test CRC E216BB53
Copy CRC E216BB53
Track not present in AccurateRip database
Copy OK
Track 6
Filename K:\Yutaka Yokokura - Another Sun (GRP 96932) 1993\06 – Perfect Love.wav
Peak level 100.0 %
Track quality 100.0 %
Test CRC DD2A5D59
Copy CRC DD2A5D59
Track not present in AccurateRip database
Copy OK
Track 7
Filename K:\Yutaka Yokokura - Another Sun (GRP 96932) 1993\07 – Lembranca.wav
Peak level 96.8 %
Track quality 100.0 %
Test CRC 442CFB60
Copy CRC 442CFB60
Track not present in AccurateRip database
Copy OK
Track 8
Filename K:\Yutaka Yokokura - Another Sun (GRP 96932) 1993\08 – More Than Ever.wav
Peak level 98.8 %
Track quality 100.0 %
Test CRC 1EFCA478
Copy CRC 1EFCA478
Track not present in AccurateRip database
Copy OK
Track 9
Filename K:\Yutaka Yokokura - Another Sun (GRP 96932) 1993\09 – Solitaire.wav
Peak level 100.0 %
Track quality 100.0 %
Test CRC EDE35BCC
Copy CRC EDE35BCC
Track not present in AccurateRip database
Copy OK
Track 10
Filename K:\Yutaka Yokokura - Another Sun (GRP 96932) 1993\10 – Dolphine.wav
Peak level 97.1 %
Track quality 100.0 %
Test CRC 0825CED4
Copy CRC 0825CED4
Track not present in AccurateRip database
Copy OK
None of the tracks are present in the AccurateRip database
No errors occurred
End of status report
 
CUE
REM DISCID 8C0B560A
REM COMMENT "ExactAudioCopy v0.99pb5"
PERFORMER "Yutaka Yokokura"
TITLE "Another Sun"
FILE "01 – Another Sun.wav" WAVE
TRACK 01 AUDIO
TITLE "Another Sun"
PERFORMER "Yutaka Yokokura"
INDEX 01 00:00:00
FILE "02 – The Look On Your Face.wav" WAVE
TRACK 02 AUDIO
TITLE "The Look On Your Face"
PERFORMER "Yutaka Yokokura"
INDEX 01 00:00:00
FILE "03 – Rain Dance.wav" WAVE
TRACK 03 AUDIO
TITLE "Rain Dance"
PERFORMER "Yutaka Yokokura"
INDEX 01 00:00:00
FILE "04 – Smile For Me.wav" WAVE
TRACK 04 AUDIO
TITLE "Smile For Me"
PERFORMER "Yutaka Yokokura"
INDEX 01 00:00:00
FILE "05 – Esta Que Arde La Noche.wav" WAVE
TRACK 05 AUDIO
TITLE "Esta Que Arde La Noche"
PERFORMER "Yutaka Yokokura"
INDEX 01 00:00:00
FILE "06 – Perfect Love.wav" WAVE
TRACK 06 AUDIO
TITLE "Perfect Love"
PERFORMER "Yutaka Yokokura"
INDEX 01 00:00:00
FILE "07 – Lembranca.wav" WAVE
TRACK 07 AUDIO
TITLE "Lembranca"
PERFORMER "Yutaka Yokokura"
INDEX 01 00:00:00
FILE "08 – More Than Ever.wav" WAVE
TRACK 08 AUDIO
TITLE "More Than Ever"
PERFORMER "Yutaka Yokokura"
INDEX 01 00:00:00
FILE "09 – Solitaire.wav" WAVE
TRACK 09 AUDIO
TITLE "Solitaire"
PERFORMER "Yutaka Yokokura"
INDEX 01 00:00:00
FILE "10 – Dolphine.wav" WAVE
TRACK 10 AUDIO
TITLE "Dolphine"
PERFORMER "Yutaka Yokokura"
INDEX 01 00:00:00
15:40
411
Нет комментариев. Ваш будет первым!