Поиск

(Brazilian Jazz, Bossa-Nova) Sabrina Malheiros (feat. Nicola Conte) - New Morning - 2009, FLAC (image+.cue), lossless

(Brazilian Jazz, Bossa-Nova) Sabrina Malheiros (feat. Nicola Conte) - New Morning - 2009, FLAC (image+.cue), lossless
Треклист:
Sabrina Malheiros - New Morning Жанр: Brazilian Jazz, Bossa-Nova
Год выпуска диска: 2009
Производитель диска: Far Out Recordings
Аудио кодек: FLAC
Тип рипа: image+.cue
Битрейт аудио: lossless
Продолжительность: 68:24
Трэклист:
01. Brisa Mar (Nicola Conte Re-Work)
02. Connexao
03. Vou Voar
04. Nova Estação
05. Ginga De Amor
06. New Morning (Nicola Conte Re-Work)
07. Sintonia (Instrumental)
08. Além Do Sol
09. Essa Canção
10. Brisa Mar (Instrumental)
11. Connexão (Paradiso Remix)
12. Eira Nem Beira (Ritmo)
13. Eira Nem Beira (IG Culture Rework)
Рип от janwal46, Avaxhome.
 
EAC extraction logfile
Exact Audio Copy V0.99 prebeta 5 from 4. May 2009
EAC extraction logfile from 25. April 2010, 20:51
Sabrina Malheiros / New Morning (DeLuxe Edition)
Used drive : Optiarc DVD RW AD-7173A Adapter: 1 ID: 0
Read mode : Secure
Utilize accurate stream : Yes
Defeat audio cache : Yes
Make use of C2 pointers : No
Read offset correction : 48
Overread into Lead-In and Lead-Out : No
Fill up missing offset samples with silence : Yes
Delete leading and trailing silent blocks : No
Null samples used in CRC calculations : Yes
Used interface : Native Win32 interface for Win NT & 2000
Used output format : Internal WAV Routines
Sample format : 44.100 Hz; 16 Bit; Stereo
TOC of the extracted CD
Track | Start | Length | Start sector | End sector
---------------------------------------------------------
1 | 0:00.00 | 3:45.65 | 0 | 16939
2 | 3:45.65 | 5:17.09 | 16940 | 40723
3 | 9:02.74 | 4:02.31 | 40724 | 58904
4 | 13:05.30 | 5:00.68 | 58905 | 81472
5 | 18:06.23 | 3:38.35 | 81473 | 97857
6 | 21:44.58 | 4:12.50 | 97858 | 116807
7 | 25:57.33 | 3:26.33 | 116808 | 132290
8 | 29:23.66 | 3:58.53 | 132291 | 150193
9 | 33:22.44 | 4:28.73 | 150194 | 170366
10 | 37:51.42 | 3:17.21 | 170367 | 185162
11 | 41:08.63 | 5:12.40 | 185163 | 208602
12 | 46:21.28 | 1:56.59 | 208603 | 217361
13 | 48:18.12 | 20:06.18 | 217362 | 307829
Range status and errors
Selected range
Filename F:\Covers\Sabrina Malheiros - New Morning\Sabrina Malheiros - New Morning (DeLuxe Edition).wav
Peak level 100.0 %
Range quality 100.0 %
Copy CRC 2E89E2DB
Copy OK
No errors occurred
AccurateRip summary
Track 1 accurately ripped (confidence 1) [AB0A39AC]
Track 2 accurately ripped (confidence 1) [710F3F71]
Track 3 accurately ripped (confidence 1) [29AB1C65]
Track 4 accurately ripped (confidence 2) [B6984AA9]
Track 5 accurately ripped (confidence 2) [364C9CC5]
Track 6 accurately ripped (confidence 2) [E056EA61]
Track 7 accurately ripped (confidence 2) [DA959369]
Track 8 accurately ripped (confidence 1) [4AE115F7]
Track 9 accurately ripped (confidence 2) [FCDC0E03]
Track 10 accurately ripped (confidence 2) [7C6A8128]
Track 11 accurately ripped (confidence 2) [EE4FF396]
Track 12 accurately ripped (confidence 2) [047BFD6F]
Track 13 accurately ripped (confidence 2) [431ED6F7]
All tracks accurately ripped
End of status report
 
Audiochecker logfile
Started at: воскресенье, 09. 05. 2010. - 19:40.40
1 file found
1 -===- E:\Музыка\Торренты\Sabrina Malheiros - New Morning\Sabrina Malheiros - New Morning (DeLuxe Edition).flac
Extracted successfully
Conclusion: this track is CDDA with probability 100%
Tempfile successfully deleted.
Finished at: воскресенье, 09. 05. 2010. - 19:45.17 (operation time: 0:04.37)
Предпрослушка Приятных впечатлений!
15:41
395
Нет комментариев. Ваш будет первым!