Поиск

(Jazz/Fusion) Stanley Jordan - Cornucopia - 1990, FLAC (tracks+.cue), lossless

(Jazz/Fusion) Stanley Jordan - Cornucopia - 1990, FLAC (tracks+.cue), lossless
Треклист:
Stanley Jordan / Cornucopia
Жанр: Jazz/Fusion
Страна-производитель диска: USA
Год издания: 1990
Издатель (лейбл): Blue Note
Номер по каталогу: CDP-592356
Страна: USA
Аудиокодек: FLAC (*.flac)
Тип рипа: tracks+.cue
Битрейт аудио: lossless
Продолжительность: 01:10:27
Источник (релизер): Avaxhome.ws
Наличие сканов в содержимом раздачи: да
Треклист:
1. Impressions
2. Willow Weep For Me
3. Autumn Leaves
4. Still Got The Blues
5. Fundance
6. What's Going On
7. Always Know
8. Asteroids
9. Cornucopia
 
Лог создания рипа
Exact Audio Copy V1.0 beta 1 from 15. November 2010
EAC extraction logfile from 29. May 2011, 13:20
Stanley Jordan / Cornucopia
Used drive : HL-DT-STDVDRAM GH20NS10 Adapter: 2 ID: 1
Read mode : Secure
Utilize accurate stream : Yes
Defeat audio cache : Yes
Make use of C2 pointers : No
Read offset correction : 667
Overread into Lead-In and Lead-Out : No
Fill up missing offset samples with silence : Yes
Delete leading and trailing silent blocks : No
Null samples used in CRC calculations : Yes
Used interface : Native Win32 interface for Win NT & 2000
Gap handling : Appended to previous track
Used output format : User Defined Encoder
Selected bitrate : 1024 kBit/s
Quality : High
Add ID3 tag : No
Command line compressor : C:\Program Files\Exact Audio Copy\Flac\flac.exe
Additional command line options : -8 -V -T "ARTIST=%a" -T "TITLE=%t" -T "ALBUM=%g" -T "DATE=%y" -T "TRACKNUMBER=%n" -T "TOTALTRACKS=%x" -T "GENRE=%m" -T "ALBUMARTIST=%v" -T "ALBUM ARTIST=%v" -T "COMMENT=EAC Secure Mode, Test & Copy, AccurateRip, FLAC -8" %s
TOC of the extracted CD
Track | Start | Length | Start sector | End sector
---------------------------------------------------------
1 | 0:00.00 | 7:18.72 | 0 | 32921
2 | 7:18.72 | 4:42.18 | 32922 | 54089
3 | 12:01.15 | 7:56.30 | 54090 | 89819
4 | 19:57.45 | 5:11.12 | 89820 | 113156
5 | 25:08.57 | 7:40.33 | 113157 | 147689
6 | 32:49.15 | 6:28.27 | 147690 | 176816
7 | 39:17.42 | 4:37.03 | 176817 | 197594
8 | 43:54.45 | 4:47.45 | 197595 | 219164
9 | 48:42.15 | 21:45.35 | 219165 | 317074
Track 1
Filename G:\Stanley Jordan - Cornucopia (1990) {Blue Note}\01 - Impressions.wav
Pre-gap length 0:00:02.00
Peak level 81.8 %
Extraction speed 4.8 X
Track quality 100.0 %
Test CRC D6368E12
Copy CRC D6368E12
Cannot be verified as accurate (confidence 12) [08063C1A], AccurateRip returned [E7460A5C]
Copy OK
Track 2
Filename G:\Stanley Jordan - Cornucopia (1990) {Blue Note}\02 - Willow Weep For Me.wav
Pre-gap length 0:00:01.40
Peak level 47.8 %
Extraction speed 4.2 X
Track quality 99.9 %
Test CRC 5F06B9CD
Copy CRC 5F06B9CD
Cannot be verified as accurate (confidence 13) [147F8038], AccurateRip returned [1DD64C26]
Copy OK
Track 3
Filename G:\Stanley Jordan - Cornucopia (1990) {Blue Note}\03 - Autumn Leaves.wav
Pre-gap length 0:00:02.68
Peak level 92.3 %
Extraction speed 6.2 X
Track quality 100.0 %
Test CRC 1293211D
Copy CRC 1293211D
Cannot be verified as accurate (confidence 13) [9AE9BC58], AccurateRip returned [6C2EE0E4]
Copy OK
Track 4
Filename G:\Stanley Jordan - Cornucopia (1990) {Blue Note}\04 - Still Got The Blues.wav
Pre-gap length 0:00:01.38
Peak level 97.7 %
Extraction speed 5.1 X
Track quality 99.9 %
Test CRC 16D0C59D
Copy CRC 16D0C59D
Cannot be verified as accurate (confidence 13) [879F8617], AccurateRip returned [FBB00393]
Copy OK
Track 5
Filename G:\Stanley Jordan - Cornucopia (1990) {Blue Note}\05 - Fundance.wav
Pre-gap length 0:00:04.37
Peak level 97.2 %
Extraction speed 7.2 X
Track quality 100.0 %
Test CRC 680B97A5
Copy CRC 680B97A5
Cannot be verified as accurate (confidence 13) [50D33F27], AccurateRip returned [48ED459F]
Copy OK
Track 6
Filename G:\Stanley Jordan - Cornucopia (1990) {Blue Note}\06 - What's Goin' On.wav
Pre-gap length 0:00:03.30
Peak level 87.9 %
Extraction speed 7.7 X
Track quality 100.0 %
Test CRC F0DCF003
Copy CRC F0DCF003
Cannot be verified as accurate (confidence 13) [6A438C31], AccurateRip returned [770AD6D5]
Copy OK
Track 7
Filename G:\Stanley Jordan - Cornucopia (1990) {Blue Note}\07 - Always Know.wav
Pre-gap length 0:00:01.72
Peak level 86.7 %
Extraction speed 7.4 X
Track quality 100.0 %
Test CRC BAAB222E
Copy CRC BAAB222E
Cannot be verified as accurate (confidence 13) [58733F91], AccurateRip returned [2564A521]
Copy OK
Track 8
Filename G:\Stanley Jordan - Cornucopia (1990) {Blue Note}\08 - Asteroids.wav
Pre-gap length 0:00:05.52
Peak level 71.5 %
Extraction speed 7.5 X
Track quality 100.0 %
Test CRC CCFC6164
Copy CRC CCFC6164
Cannot be verified as accurate (confidence 13) [67F1924D], AccurateRip returned [847DEA67]
Copy OK
Track 9
Filename G:\Stanley Jordan - Cornucopia (1990) {Blue Note}\09 - Cornucopia.wav
Pre-gap length 0:00:05.03
Peak level 52.2 %
Extraction speed 9.5 X
Track quality 100.0 %
Test CRC 3D7581FA
Copy CRC 3D7581FA
Cannot be verified as accurate (confidence 13) [053CC314], AccurateRip returned [6A929C95]
Copy OK
No tracks could be verified as accurate
You may have a different pressing from the one(s) in the database
No errors occurred
End of status report
==== Log checksum EA2BC501A0F1FF9673F58CDC81F99243F47322DEF607AF7E530B9D29E91591BA ====
 
Содержание индексной карты (.CUE)
REM GENRE Jazz
REM DATE 1990
REM DISCID 78108309
REM COMMENT "ExactAudioCopy v1.0b1"
PERFORMER "Stanley Jordan"
TITLE "Cornucopia"
FILE "01 - Impressions.wav" WAVE
TRACK 01 AUDIO
TITLE "Impressions"
PERFORMER "Stanley Jordan"
INDEX 01 00:00:00
TRACK 02 AUDIO
TITLE "Willow Weep For Me"
PERFORMER "Stanley Jordan"
INDEX 00 07:17:32
FILE "02 - Willow Weep For Me.wav" WAVE
INDEX 01 00:00:00
TRACK 03 AUDIO
TITLE "Autumn Leaves"
PERFORMER "Stanley Jordan"
INDEX 00 04:39:25
FILE "03 - Autumn Leaves.wav" WAVE
INDEX 01 00:00:00
TRACK 04 AUDIO
TITLE "Still Got The Blues"
PERFORMER "Stanley Jordan"
INDEX 00 07:54:67
FILE "04 - Still Got The Blues.wav" WAVE
INDEX 01 00:00:00
TRACK 05 AUDIO
TITLE "Fundance"
PERFORMER "Stanley Jordan"
INDEX 00 05:06:50
FILE "05 - Fundance.wav" WAVE
INDEX 01 00:00:00
TRACK 06 AUDIO
TITLE "What's Goin' On"
PERFORMER "Stanley Jordan"
INDEX 00 07:37:03
FILE "06 - What's Goin' On.wav" WAVE
INDEX 01 00:00:00
TRACK 07 AUDIO
TITLE "Always Know"
PERFORMER "Stanley Jordan"
INDEX 00 06:26:30
FILE "07 - Always Know.wav" WAVE
INDEX 01 00:00:00
TRACK 08 AUDIO
TITLE "Asteroids"
PERFORMER "Stanley Jordan"
INDEX 00 04:31:26
FILE "08 - Asteroids.wav" WAVE
INDEX 01 00:00:00
TRACK 09 AUDIO
TITLE "Cornucopia"
PERFORMER "Stanley Jordan"
INDEX 00 04:42:42
FILE "09 - Cornucopia.wav" WAVE
INDEX 01 00:00:00
Приватный:
Нет (DHT включён)
Размер:
310.06 Мб (325,118,261 байт) » файлов: 14
Участники:
0 раздают, 0 качают (0 участников всего)
Внешние участники:
1 раздают, 0 качают (1 участников всего) [ Обновить ]
For power users only: no seeders - write to support@pro-jazz.com. Для power user: нет сидеров - пишите на support@pro-jazz.com.
03:54
143
Нет комментариев. Ваш будет первым!