Поиск

(Smooth Jazz, Jazz-Funk, Easy Listening) Greeen Linez - Things That Fade - 2012, FLAC (tracks+.cue), lossless

(Smooth Jazz, Jazz-Funk, Easy Listening) Greeen Linez - Things That Fade - 2012, FLAC (tracks+.cue), lossless
Треклист:
Greeen Linez / Things That Fade
Жанр: Smooth Jazz, Jazz-Funk, Easy Listening
Страна-производитель диска: Japan
Год издания: 2012
Издатель (лейбл): Diskotopia
Номер по каталогу: DSKCD002
Аудиокодек: FLAC (*.flac)
Тип рипа: tracks
Битрейт аудио: lossless
Продолжительность: 0:51:08
Источник (релизер): what.cd
Наличие сканов в содержимом раздачи: нет
Треклист:
1. March 12th Street
2. Palm Coast Freeway
3. Courtside Daydreams
4. Hibiscus Pacific
5. Fantasy Glide
6. Cubic Mentality
7. City Cell 1
8. Forgotten Shores
9. City Cell 2
10. Knowledge Featuring – Awa (10)
11. Frisk
12. Lift Off
 
Audiochecker log
AUDIOCHECKER v2.0 beta (build 457) - by Dester - opdester@freemail.hu
~~~~~~~~~~~~~~~~~~~~~~~~~~~~~~~~~~
Начато: среда, 15. 08. 2012. - 20:52.07
Найдено файлов: 12
01 -===- C:\Users\jora\Desktop\Downloads\Greeen_Linez_-_Things_That_Fade\01-March 12th Street.flac
Извлечение успешно выполнено
Заключение: этот трек - CDDA с вероятностью 100%
Временный файл удалён.
02 -===- C:\Users\jora\Desktop\Downloads\Greeen_Linez_-_Things_That_Fade\02-Palm Coast Freeway.flac
Извлечение успешно выполнено
Заключение: этот трек - CDDA с вероятностью 100%
Временный файл удалён.
03 -===- C:\Users\jora\Desktop\Downloads\Greeen_Linez_-_Things_That_Fade\03-Courtside Daydreams.flac
Извлечение успешно выполнено
Заключение: этот трек - CDDA с вероятностью 99%
Временный файл удалён.
04 -===- C:\Users\jora\Desktop\Downloads\Greeen_Linez_-_Things_That_Fade\04-Hibiscus Pacific.flac
Извлечение успешно выполнено
Заключение: этот трек - CDDA с вероятностью 100%
Временный файл удалён.
05 -===- C:\Users\jora\Desktop\Downloads\Greeen_Linez_-_Things_That_Fade\05-Fantasy Glide.flac
Извлечение успешно выполнено
Заключение: этот трек - CDDA с вероятностью 100%
Временный файл удалён.
06 -===- C:\Users\jora\Desktop\Downloads\Greeen_Linez_-_Things_That_Fade\06-Cubic Mentality.flac
Извлечение успешно выполнено
Заключение: этот трек - CDDA с вероятностью 100%
Временный файл удалён.
07 -===- C:\Users\jora\Desktop\Downloads\Greeen_Linez_-_Things_That_Fade\07-City Cell 1.flac
Извлечение успешно выполнено
Заключение: этот трек - CDDA с вероятностью 100%
Временный файл удалён.
08 -===- C:\Users\jora\Desktop\Downloads\Greeen_Linez_-_Things_That_Fade\08-Forgotten Shores.flac
Извлечение успешно выполнено
Заключение: этот трек - CDDA с вероятностью 100%
Временный файл удалён.
09 -===- C:\Users\jora\Desktop\Downloads\Greeen_Linez_-_Things_That_Fade\09-City Cell 2.flac
Извлечение успешно выполнено
Заключение: этот трек - CDDA с вероятностью 100%
Временный файл удалён.
10 -===- C:\Users\jora\Desktop\Downloads\Greeen_Linez_-_Things_That_Fade\10-Knowledge (feat Awa).flac
Извлечение успешно выполнено
Заключение: этот трек - CDDA с вероятностью 100%
Временный файл удалён.
11 -===- C:\Users\jora\Desktop\Downloads\Greeen_Linez_-_Things_That_Fade\11-Frisk.flac
Извлечение успешно выполнено
Заключение: этот трек - CDDA с вероятностью 99%
Временный файл удалён.
12 -===- C:\Users\jora\Desktop\Downloads\Greeen_Linez_-_Things_That_Fade\12-Lift Off.flac
Извлечение успешно выполнено
Заключение: этот трек - CDDA с вероятностью 100%
Временный файл удалён.
Завершено: среда, 15. 08. 2012. - 21:51.18 (Время операции: 0:59.11)
 
Содержание индексной карты .CUE
REM GENRE Electronic
REM DATE 2012
REM COMMENT Processed by SoX
PERFORMER "Greeen Linez"
TITLE "Things That Fade"
FILE "01-March 12th Street.flac" WAVE
TRACK 01 AUDIO
TITLE "March 12th Street"
INDEX 01 00:00:00
FILE "02-Palm Coast Freeway.flac" WAVE
TRACK 02 AUDIO
TITLE "Palm Coast Freeway"
INDEX 01 00:00:00
FILE "03-Courtside Daydreams.flac" WAVE
TRACK 03 AUDIO
TITLE "Courtside Daydreams"
INDEX 01 00:00:00
FILE "04-Hibiscus Pacific.flac" WAVE
TRACK 04 AUDIO
TITLE "Hibiscus Pacific"
INDEX 01 00:00:00
FILE "05-Fantasy Glide.flac" WAVE
TRACK 05 AUDIO
TITLE "Fantasy Glide"
INDEX 01 00:00:00
FILE "06-Cubic Mentality.flac" WAVE
TRACK 06 AUDIO
TITLE "Cubic Mentality"
INDEX 01 00:00:00
FILE "07-City Cell 1.flac" WAVE
TRACK 07 AUDIO
TITLE "City Cell 1"
INDEX 01 00:00:00
FILE "08-Forgotten Shores.flac" WAVE
TRACK 08 AUDIO
TITLE "Forgotten Shores"
INDEX 01 00:00:00
FILE "09-City Cell 2.flac" WAVE
TRACK 09 AUDIO
TITLE "City Cell 2"
INDEX 01 00:00:00
FILE "10-Knowledge (feat Awa).flac" WAVE
TRACK 10 AUDIO
TITLE "Knowledge (feat. Awa)"
INDEX 01 00:00:00
FILE "11-Frisk.flac" WAVE
TRACK 11 AUDIO
TITLE "Frisk"
INDEX 01 00:00:00
FILE "12-Lift Off.flac" WAVE
TRACK 12 AUDIO
TITLE "Lift Off"
INDEX 01 00:00:00
Приватный:
Нет (DHT включён)
Размер:
362.51 Мб (380,115,311 байт) » файлов: 16
Участники:
0 раздают, 0 качают (0 участников всего)
Внешние участники:
2 раздают, 1 качают (3 участников всего) [ Обновить ]
For power users only: no seeders - write personal message to M0p94ok. Для power user: нет сидеров - пишите в личку M0p94ok.
03:55
116
Нет комментариев. Ваш будет первым!