Поиск

(Smooth, Jazz-Pop) Joyce Cooling - Playing It Cool - 1997, FLAC (tracks+.cue), lossless

(Smooth, Jazz-Pop) Joyce Cooling - Playing It Cool - 1997, FLAC (tracks+.cue), lossless
Треклист:
•Joyce Cooling - Playing It Cool•
Жанр: Smooth, Jazz-Pop
Страна-производитель диска: USA
Год издания: 1997
Издатель (лейбл): Heads Up
Номер по каталогу: HUCD 3040
Аудиокодек: FLAC (*.flac)
Тип рипа: tracks+.cue
Битрейт аудио: lossless
Продолжительность: 00:51:05
Источник (релизер): artmuss
Наличие сканов в содержимом раздачи: да
Треклист:
01.Imagine That [04:10]
02.Savannah [05:02]
03.After Hours [03:53]
04.Another Time [05:01]
05.Almost Home [04:08]
06.South Of Market [04:28]
07.On The Run [04:15]
08.Sleight Of Hand [03:53]
09.Say You Will [04:33]
10.How Was I To Know? [04:28]
11.Firefly [07:10]
 
Лог создания рипа
Exact Audio Copy V0.99 prebeta 5 from 4. May 2009
EAC extraction logfile from 9. May 2009, 10:01
Joyce Cooling / Playing It Cool
Used drive : HL-DT-STDVD-RW GH41N Adapter: 1 ID: 0
Read mode : Secure
Utilize accurate stream : Yes
Defeat audio cache : Yes
Make use of C2 pointers : No
Read offset correction : 667
Overread into Lead-In and Lead-Out : No
Fill up missing offset samples with silence : Yes
Delete leading and trailing silent blocks : No
Null samples used in CRC calculations : Yes
Used interface : Native Win32 interface for Win NT & 2000
Gap handling : Appended to previous track
Used output format : User Defined Encoder
Selected bitrate : 768 kBit/s
Quality : High
Add ID3 tag : No
Command line compressor : C:\Program Files\Exact Audio Copy\FLAC\FLAC.EXE
Additional command line options : -V -8 -T "artist=%a" -T "title=%t" -T "album=%g" -T "date=%y" -T "tracknumber=%n" -T "genre=%m" %s
TOC of the extracted CD
Track | Start | Length | Start sector | End sector
---------------------------------------------------------
1 | 0:00.00 | 4:10.31 | 0 | 18780
2 | 4:10.31 | 5:02.25 | 18781 | 41455
3 | 9:12.56 | 3:53.34 | 41456 | 58964
4 | 13:06.15 | 5:01.34 | 58965 | 81573
5 | 18:07.49 | 4:08.00 | 81574 | 100173
6 | 22:15.49 | 4:28.68 | 100174 | 120341
7 | 26:44.42 | 4:15.09 | 120342 | 139475
8 | 30:59.51 | 3:53.28 | 139476 | 156978
9 | 34:53.04 | 4:33.20 | 156979 | 177473
10 | 39:26.24 | 4:28.09 | 177474 | 197582
11 | 43:54.33 | 7:10.69 | 197583 | 229901
12 | 53:37.27 | 18:40.64 | 241302 | 325365
Track 1
Filename Z:\win\harrz\joyce cooling\Joyce Cooling\Playing It Cool\01 - Imagine That.wav
Pre-gap length 0:00:02.00
Peak level 100.0 %
Track quality 100.0 %
Test CRC 4DB2366F
Copy CRC 4DB2366F
Accurately ripped (confidence 2) [008B8CF8]
Copy OK
Track 2
Filename Z:\win\harrz\joyce cooling\Joyce Cooling\Playing It Cool\02 - Savannah.wav
Pre-gap length 0:00:02.93
Peak level 100.0 %
Track quality 100.0 %
Test CRC E789217A
Copy CRC E789217A
Accurately ripped (confidence 1) [1B65FD6E]
Copy OK
Track 3
Filename Z:\win\harrz\joyce cooling\Joyce Cooling\Playing It Cool\03 - After Hours.wav
Pre-gap length 0:00:02.90
Peak level 100.0 %
Track quality 99.9 %
Test CRC B2DC86DD
Copy CRC B2DC86DD
Accurately ripped (confidence 2) [BAFAC3C1]
Copy OK
Track 4
Filename Z:\win\harrz\joyce cooling\Joyce Cooling\Playing It Cool\04 - Another Time.wav
Pre-gap length 0:00:03.17
Peak level 100.0 %
Track quality 100.0 %
Test CRC E944C0F3
Copy CRC E944C0F3
Accurately ripped (confidence 2) [13D04675]
Copy OK
Track 5
Filename Z:\win\harrz\joyce cooling\Joyce Cooling\Playing It Cool\05 - Almost Home.wav
Pre-gap length 0:00:03.02
Peak level 100.0 %
Track quality 100.0 %
Test CRC E9812329
Copy CRC E9812329
Accurately ripped (confidence 2) [7FAF2056]
Copy OK
Track 6
Filename Z:\win\harrz\joyce cooling\Joyce Cooling\Playing It Cool\06 - South Of Market.wav
Pre-gap length 0:00:04.21
Peak level 100.0 %
Track quality 100.0 %
Test CRC F859DE47
Copy CRC F859DE47
Accurately ripped (confidence 2) [1EB9991E]
Copy OK
Track 7
Filename Z:\win\harrz\joyce cooling\Joyce Cooling\Playing It Cool\07 - On The Run.wav
Pre-gap length 0:00:02.38
Peak level 100.0 %
Track quality 100.0 %
Test CRC F1EA4AD1
Copy CRC F1EA4AD1
Accurately ripped (confidence 1) [3CD7421E]
Copy OK
Track 8
Filename Z:\win\harrz\joyce cooling\Joyce Cooling\Playing It Cool\08 - Sleight Of Hand.wav
Pre-gap length 0:00:02.60
Peak level 100.0 %
Track quality 100.0 %
Test CRC E17D56FF
Copy CRC E17D56FF
Accurately ripped (confidence 2) [0AEAD83D]
Copy OK
Track 9
Filename Z:\win\harrz\joyce cooling\Joyce Cooling\Playing It Cool\09 - Say You Will.wav
Pre-gap length 0:00:04.28
Peak level 100.0 %
Track quality 99.9 %
Test CRC 5030C29B
Copy CRC 5030C29B
Track not present in AccurateRip database
Copy OK
Track 10
Filename Z:\win\harrz\joyce cooling\Joyce Cooling\Playing It Cool\10 - How Was I To Know .wav
Pre-gap length 0:00:03.12
Peak level 91.6 %
Track quality 100.0 %
Test CRC 74A3644F
Copy CRC 74A3644F
Accurately ripped (confidence 2) [05839288]
Copy OK
Track 11
Filename Z:\win\harrz\joyce cooling\Joyce Cooling\Playing It Cool\11 - Firefly.wav
Pre-gap length 0:00:03.14
Peak level 100.0 %
Track quality 100.0 %
Test CRC E30EBB2A
Copy CRC E30EBB2A
Accurately ripped (confidence 2) [36237B82]
Copy OK
10 track(s) accurately ripped
1 track(s) not present in the AccurateRip database
Some tracks could not be verified as accurate
No errors occurred
End of status report
 
Содержание индексной карты (.CUE)
REM GENRE Jazz
REM DISCID B010F20C
REM COMMENT "ExactAudioCopy v0.99pb5"
PERFORMER "Joyce Cooling"
TITLE "Playing It Cool"
FILE "01 - Imagine That.wav" WAVE
TRACK 01 AUDIO
TITLE "Imagine That"
PERFORMER "Joyce Cooling"
INDEX 01 00:00:00
TRACK 02 AUDIO
TITLE "Savannah"
PERFORMER "Joyce Cooling"
INDEX 00 04:07:36
FILE "02 - Savannah.wav" WAVE
INDEX 01 00:00:00
TRACK 03 AUDIO
TITLE "After Hours"
PERFORMER "Joyce Cooling"
INDEX 00 04:59:32
FILE "03 - After Hours.wav" WAVE
INDEX 01 00:00:00
TRACK 04 AUDIO
TITLE "Another Time"
PERFORMER "Joyce Cooling"
INDEX 00 03:50:21
FILE "04 - Another Time.wav" WAVE
INDEX 01 00:00:00
TRACK 05 AUDIO
TITLE "Almost Home"
PERFORMER "Joyce Cooling"
INDEX 00 04:58:32
FILE "05 - Almost Home.wav" WAVE
INDEX 01 00:00:00
TRACK 06 AUDIO
TITLE "South Of Market"
PERFORMER "Joyce Cooling"
INDEX 00 04:03:59
FILE "06 - South Of Market.wav" WAVE
INDEX 01 00:00:00
TRACK 07 AUDIO
TITLE "On The Run"
PERFORMER "Joyce Cooling"
INDEX 00 04:26:39
FILE "07 - On The Run.wav" WAVE
INDEX 01 00:00:00
TRACK 08 AUDIO
TITLE "Sleight Of Hand"
PERFORMER "Joyce Cooling"
INDEX 00 04:12:39
FILE "08 - Sleight Of Hand.wav" WAVE
INDEX 01 00:00:00
TRACK 09 AUDIO
TITLE "Say You Will"
PERFORMER "Joyce Cooling"
INDEX 00 03:49:07
FILE "09 - Say You Will.wav" WAVE
INDEX 01 00:00:00
TRACK 10 AUDIO
TITLE "How Was I To Know?"
PERFORMER "Joyce Cooling"
INDEX 00 04:30:11
FILE "10 - How Was I To Know .wav" WAVE
INDEX 01 00:00:00
TRACK 11 AUDIO
TITLE "Firefly"
PERFORMER "Joyce Cooling"
INDEX 00 04:24:73
FILE "11 - Firefly.wav" WAVE
INDEX 01 00:00:00
Приватный:
Нет (DHT включён)
Размер:
325.56 Мб (341,377,034 байт) » файлов: 18
Участники:
0 раздают, 0 качают (0 участников всего)
Внешние участники:
3 раздают, 1 качают (4 участников всего) [ Обновить ]
For power users only: no seeders - write personal message to M0p94ok. Для power user: нет сидеров - пишите в личку M0p94ok.
03:53
167
Нет комментариев. Ваш будет первым!