Вы используете незарегистрированную версию компонента "Вкладки"!

Поиск

(Jazz/Free jazz/Avant-Garde) Anthony Braxton - 20 Standards (Quartet) - 2005, FLAC (tracks+.cue) lossless

(Jazz/Free jazz/Avant-Garde) Anthony Braxton - 20 Standards (Quartet) - 2005, FLAC (tracks+.cue) lossless
Треклист:
Anthony Braxton / 20 Standards (Quartet)
Жанр: Jazz/Free jazz/Avant-Garde
Страна-производитель диска: UK
Год издания диска: February 19 - November 20, 2003
Год издания диска: August 23, 2005
Издатель (лейбл): Leo Records
Номер по каталогу: 431/434 limited edition (1 000 copies)
Страна: USA
Аудио кодек: FLAC (*.flac)
Тип рипа: tracks+.cue
Битрейт аудио: lossless
Продолжительность: 4:58:16
Источник (релизер): скачано в ed2k
Наличие сканов в содержимом раздачи: да
Треклист:
CD1
1 All the Things You Are 20:11
2 Lines for Lions 13:57
3 April in Paris 12:30
4 Green Dolphin Street 16:12
5 Blues for Alice 13:32
CD2
1 Alone Together 18:30
2 Waltz for Debbie 12:32
3 For Heaven's Sake 13:44
4 Freedom Jazz Dance 14:54
5 The Song Is You 19:12
CD3
1 The Duke 12:28
2 I Love You 13:54
3 Lonnie's Lament 8:09
4 Blue Rondo à la Turk 14:47
5 Invitation 17:09
CD4
1 Tune Up 19:20
2 Remember 18:08
3 Moonlight in Vermont 15:11
4 Take Five 10:29
5 Serenity 13:27
 
Лог создания рипа CD1
Exact Audio Copy V0.99 prebeta 4 from 23. January 2008
Archivo Log de extracciones desde 18. Julio 2008, 18:03
Anthony Braxton / 20 Standards (Quartet) 2003 - [Disc 1]
Usar unidad : TSSTcorpDVD+-RW TS-H553A Adapter: 1 ID: 0
Modo de Lectura : Seguro
Utilizar Corriente Exacta : Sн
Descartar Audio cachй : Sн
Utilizar los punteros C2 : No
Correcciуn de Desplazamiento de Lectura : 6
Sobreleer tanto en Lead-In como en Lead-Out : No
Rellenar las muestras faltantes con silencios : Sн
Eliminar silencios inicial y final : No
Se han usado muestras nulas en los cбlculos CRC : Sн
Interfaz usada : Interfaz ASPI externo instalado
Gestiуn de Gaps : Aсadido a la pista previa
Formato de Salida utilizado : Compresor definido por el usuario
Bitrate seleccionado : 768 kBit/s
Calidad : Alta
Aсadir Etiqueta ID3 : No
Compresor de linea de comandos : D:\Archivos de programa\Exact Audio Copy\FLAC\FLAC.EXE
Opciones adicionales en lнnea de comandos : -6 -V -T "ARTIST=%a" -T "TITLE=%t" -T "ALBUM=%g" -T "DATE=%y" -T "TRACKNUMBER=%n" -T "GENRE=%m" -T "COMMENT=%e" %s -o %d
TOC del CD extraido
Pista | Inicio | Duraciуn | Sector inicial | Sector final
-------------------------------------------------------------
1 | 0:00.00 | 20:11.60 | 0 | 90884
2 | 20:11.60 | 13:57.48 | 90885 | 153707
3 | 34:09.33 | 12:30.60 | 153708 | 210017
4 | 46:40.18 | 16:12.53 | 210018 | 282970
5 | 62:52.71 | 13:32.57 | 282971 | 343927
Pista 1
Nombre de Archivo C:\DESCARGAS\Incoming\Anthony Braxton - 20 Standards (Quartet) 2003\Disc 1\Anthony Braxton - 20 Standards (Quartet) 2003 - [Disc 1] - 01. All the Things You Are.wav
Longitud Pre-gap 0:00:02.00
Nivel Pico 100.0 %
Calidad de Pista 100.0 %
Copiar CRC CC87E390
Copia OK
Pista 2
Nombre de Archivo C:\DESCARGAS\Incoming\Anthony Braxton - 20 Standards (Quartet) 2003\Disc 1\Anthony Braxton - 20 Standards (Quartet) 2003 - [Disc 1] - 02. Lines for Lyons.wav
Longitud Pre-gap 0:00:03.00
Nivel Pico 99.9 %
Calidad de Pista 100.0 %
Copiar CRC 48CAC0F4
Copia OK
Pista 3
Nombre de Archivo C:\DESCARGAS\Incoming\Anthony Braxton - 20 Standards (Quartet) 2003\Disc 1\Anthony Braxton - 20 Standards (Quartet) 2003 - [Disc 1] - 03. April in Paris.wav
Longitud Pre-gap 0:00:04.38
Nivel Pico 100.0 %
Calidad de Pista 99.9 %
Copiar CRC BA344863
Copia OK
Pista 4
Nombre de Archivo C:\DESCARGAS\Incoming\Anthony Braxton - 20 Standards (Quartet) 2003\Disc 1\Anthony Braxton - 20 Standards (Quartet) 2003 - [Disc 1] - 04. Green Dolphin Street.wav
Longitud Pre-gap 0:00:04.38
Nivel Pico 100.0 %
Calidad de Pista 100.0 %
Copiar CRC 32DB6087
Copia OK
Pista 5
Nombre de Archivo C:\DESCARGAS\Incoming\Anthony Braxton - 20 Standards (Quartet) 2003\Disc 1\Anthony Braxton - 20 Standards (Quartet) 2003 - [Disc 1] - 05. Blues for Alice.wav
Longitud Pre-gap 0:00:04.38
Nivel Pico 100.0 %
Calidad de Pista 100.0 %
Copiar CRC C70F7A94
Copia OK
Sin Errores
Final del Informe
 
Лог создания рипа CD2
Exact Audio Copy V0.99 prebeta 4 from 23. January 2008
Archivo Log de extracciones desde 18. Julio 2008, 18:26
Anthony Braxton / 20 Standards (Quartet) 2003 - [Disc 2]
Usar unidad : TSSTcorpDVD+-RW TS-H553A Adapter: 1 ID: 0
Modo de Lectura : Seguro
Utilizar Corriente Exacta : Sн
Descartar Audio cachй : Sн
Utilizar los punteros C2 : No
Correcciуn de Desplazamiento de Lectura : 6
Sobreleer tanto en Lead-In como en Lead-Out : No
Rellenar las muestras faltantes con silencios : Sн
Eliminar silencios inicial y final : No
Se han usado muestras nulas en los cбlculos CRC : Sн
Interfaz usada : Interfaz ASPI externo instalado
Gestiуn de Gaps : Aсadido a la pista previa
Formato de Salida utilizado : Compresor definido por el usuario
Bitrate seleccionado : 768 kBit/s
Calidad : Alta
Aсadir Etiqueta ID3 : No
Compresor de linea de comandos : D:\Archivos de programa\Exact Audio Copy\FLAC\FLAC.EXE
Opciones adicionales en lнnea de comandos : -6 -V -T "ARTIST=%a" -T "TITLE=%t" -T "ALBUM=%g" -T "DATE=%y" -T "TRACKNUMBER=%n" -T "GENRE=%m" -T "COMMENT=%e" %s -o %d
TOC del CD extraido
Pista | Inicio | Duraciуn | Sector inicial | Sector final
-------------------------------------------------------------
1 | 0:00.00 | 18:30.57 | 0 | 83306
2 | 18:30.57 | 12:32.52 | 83307 | 139758
3 | 31:03.34 | 13:44.35 | 139759 | 201593
4 | 44:47.69 | 14:54.57 | 201594 | 268700
5 | 59:42.51 | 19:12.44 | 268701 | 355144
Pista 1
Nombre de Archivo C:\DESCARGAS\Incoming\Anthony Braxton - 20 Standards (Quartet) 2003\Disc 2\Anthony Braxton - 20 Standards (Quartet) 2003 - [Disc 2] - 01. Alone Together.wav
Longitud Pre-gap 0:00:02.00
Nivel Pico 100.0 %
Calidad de Pista 99.9 %
Copiar CRC 54820E19
Copia OK
Pista 2
Nombre de Archivo C:\DESCARGAS\Incoming\Anthony Braxton - 20 Standards (Quartet) 2003\Disc 2\Anthony Braxton - 20 Standards (Quartet) 2003 - [Disc 2] - 02. Waltz for Debbie.wav
Longitud Pre-gap 0:00:04.00
Nivel Pico 100.0 %
Calidad de Pista 100.0 %
Copiar CRC 23A6F261
Copia OK
Pista 3
Nombre de Archivo C:\DESCARGAS\Incoming\Anthony Braxton - 20 Standards (Quartet) 2003\Disc 2\Anthony Braxton - 20 Standards (Quartet) 2003 - [Disc 2] - 03. For Heaven's Sake.wav
Longitud Pre-gap 0:00:04.00
Nivel Pico 99.9 %
Calidad de Pista 100.0 %
Copiar CRC D19D87F6
Copia OK
Pista 4
Nombre de Archivo C:\DESCARGAS\Incoming\Anthony Braxton - 20 Standards (Quartet) 2003\Disc 2\Anthony Braxton - 20 Standards (Quartet) 2003 - [Disc 2] - 04. Freedom Jazz Dance.wav
Longitud Pre-gap 0:00:03.74
Nivel Pico 100.0 %
Calidad de Pista 100.0 %
Copiar CRC B104BA1C
Copia OK
Pista 5
Nombre de Archivo C:\DESCARGAS\Incoming\Anthony Braxton - 20 Standards (Quartet) 2003\Disc 2\Anthony Braxton - 20 Standards (Quartet) 2003 - [Disc 2] - 05. The Song Is You.wav
Longitud Pre-gap 0:00:05.38
Nivel Pico 100.0 %
Calidad de Pista 99.9 %
Copiar CRC 562DED41
Copia OK
Sin Errores
Final del Informe
 
Лог создания рипа CD3
Exact Audio Copy V0.99 prebeta 4 from 23. January 2008
Archivo Log de extracciones desde 18. Julio 2008, 18:56
Anthony Braxton / 20 Standards (Quartet) 2003 [Disc 3]
Usar unidad : TSSTcorpDVD+-RW TS-H553A Adapter: 1 ID: 0
Modo de Lectura : Seguro
Utilizar Corriente Exacta : Sн
Descartar Audio cachй : Sн
Utilizar los punteros C2 : No
Correcciуn de Desplazamiento de Lectura : 6
Sobreleer tanto en Lead-In como en Lead-Out : No
Rellenar las muestras faltantes con silencios : Sн
Eliminar silencios inicial y final : No
Se han usado muestras nulas en los cбlculos CRC : Sн
Interfaz usada : Interfaz ASPI externo instalado
Gestiуn de Gaps : Aсadido a la pista previa
Formato de Salida utilizado : Compresor definido por el usuario
Bitrate seleccionado : 768 kBit/s
Calidad : Alta
Aсadir Etiqueta ID3 : No
Compresor de linea de comandos : D:\Archivos de programa\Exact Audio Copy\FLAC\FLAC.EXE
Opciones adicionales en lнnea de comandos : -6 -V -T "ARTIST=%a" -T "TITLE=%t" -T "ALBUM=%g" -T "DATE=%y" -T "TRACKNUMBER=%n" -T "GENRE=%m" -T "COMMENT=%e" %s -o %d
TOC del CD extraido
Pista | Inicio | Duraciуn | Sector inicial | Sector final
-------------------------------------------------------------
1 | 0:00.00 | 12:28.51 | 0 | 56150
2 | 12:28.51 | 13:54.73 | 56151 | 118773
3 | 26:23.49 | 8:09.29 | 118774 | 155477
4 | 34:33.03 | 14:47.73 | 155478 | 222075
5 | 49:21.01 | 17:09.43 | 222076 | 299293
Pista 1
Nombre de Archivo C:\DESCARGAS\Incoming\Anthony Braxton - 20 Standards (Quartet) 2003\Disc 3\Anthony Braxton - 20 Standards (Quartet) 2003 [Disc 3] - 01. The Duke.wav
Longitud Pre-gap 0:00:02.00
Nivel Pico 100.0 %
Calidad de Pista 99.9 %
Copiar CRC FA546C86
Copia OK
Pista 2
Nombre de Archivo C:\DESCARGAS\Incoming\Anthony Braxton - 20 Standards (Quartet) 2003\Disc 3\Anthony Braxton - 20 Standards (Quartet) 2003 [Disc 3] - 02. I Love You.wav
Longitud Pre-gap 0:00:04.38
Nivel Pico 99.9 %
Calidad de Pista 100.0 %
Copiar CRC B79DE1CA
Copia OK
Pista 3
Nombre de Archivo C:\DESCARGAS\Incoming\Anthony Braxton - 20 Standards (Quartet) 2003\Disc 3\Anthony Braxton - 20 Standards (Quartet) 2003 [Disc 3] - 03. Lonnie's Lament.wav
Longitud Pre-gap 0:00:06.38
Nivel Pico 63.0 %
Calidad de Pista 100.0 %
Copiar CRC 038D5497
Copia OK
Pista 4
Nombre de Archivo C:\DESCARGAS\Incoming\Anthony Braxton - 20 Standards (Quartet) 2003\Disc 3\Anthony Braxton - 20 Standards (Quartet) 2003 [Disc 3] - 04. Blue Rondo Ala Turk.wav
Longitud Pre-gap 0:00:04.00
Nivel Pico 100.0 %
Calidad de Pista 100.0 %
Copiar CRC 4330FB9A
Copia OK
Pista 5
Nombre de Archivo C:\DESCARGAS\Incoming\Anthony Braxton - 20 Standards (Quartet) 2003\Disc 3\Anthony Braxton - 20 Standards (Quartet) 2003 [Disc 3] - 05. Invitation.wav
Longitud Pre-gap 0:00:05.00
Nivel Pico 100.0 %
Calidad de Pista 100.0 %
Copiar CRC 5700AF7E
Copia OK
Sin Errores
Final del Informe
 
Лог создания рипа CD4
Exact Audio Copy V0.99 prebeta 4 from 23. January 2008
Archivo Log de extracciones desde 18. Julio 2008, 19:40
Anthony Braxton / 20 Standards (Quartet) 2003 [Disc 4]
Usar unidad : TSSTcorpDVD+-RW TS-H553A Adapter: 1 ID: 0
Modo de Lectura : Seguro
Utilizar Corriente Exacta : Sн
Descartar Audio cachй : Sн
Utilizar los punteros C2 : No
Correcciуn de Desplazamiento de Lectura : 6
Sobreleer tanto en Lead-In como en Lead-Out : No
Rellenar las muestras faltantes con silencios : Sн
Eliminar silencios inicial y final : No
Se han usado muestras nulas en los cбlculos CRC : Sн
Interfaz usada : Interfaz ASPI externo instalado
Gestiуn de Gaps : Aсadido a la pista previa
Formato de Salida utilizado : Compresor definido por el usuario
Bitrate seleccionado : 768 kBit/s
Calidad : Alta
Aсadir Etiqueta ID3 : No
Compresor de linea de comandos : D:\Archivos de programa\Exact Audio Copy\FLAC\FLAC.EXE
Opciones adicionales en lнnea de comandos : -6 -V -T "ARTIST=%a" -T "TITLE=%t" -T "ALBUM=%g" -T "DATE=%y" -T "TRACKNUMBER=%n" -T "GENRE=%m" -T "COMMENT=%e" %s -o %d
TOC del CD extraido
Pista | Inicio | Duraciуn | Sector inicial | Sector final
-------------------------------------------------------------
1 | 0:00.00 | 19:20.15 | 0 | 87014
2 | 19:20.15 | 18:08.61 | 87015 | 168675
3 | 37:29.01 | 15:11.12 | 168676 | 237012
4 | 52:40.13 | 10:29.09 | 237013 | 284196
5 | 63:09.22 | 13:27.36 | 284197 | 344757
Pista 1
Nombre de Archivo C:\DESCARGAS\Incoming\Anthony Braxton - 20 Standards (Quartet) 2003\Disc 4\Anthony Braxton - 20 Standards (Quartet) 2003 [Disc 4] - 01. Tune Up.wav
Longitud Pre-gap 0:00:02.00
Nivel Pico 89.1 %
Calidad de Pista 99.9 %
Copiar CRC 2787C2B1
Copia OK
Pista 2
Nombre de Archivo C:\DESCARGAS\Incoming\Anthony Braxton - 20 Standards (Quartet) 2003\Disc 4\Anthony Braxton - 20 Standards (Quartet) 2003 [Disc 4] - 02. Remember.wav
Longitud Pre-gap 0:00:04.00
Nivel Pico 89.1 %
Calidad de Pista 99.9 %
Copiar CRC 003A658E
Copia OK
Pista 3
Nombre de Archivo C:\DESCARGAS\Incoming\Anthony Braxton - 20 Standards (Quartet) 2003\Disc 4\Anthony Braxton - 20 Standards (Quartet) 2003 [Disc 4] - 03. Moonlight in Vermont.wav
Longitud Pre-gap 0:00:04.37
Nivel Pico 89.1 %
Calidad de Pista 99.9 %
Copiar CRC 4BBEBB65
Copia OK
Pista 4
Nombre de Archivo C:\DESCARGAS\Incoming\Anthony Braxton - 20 Standards (Quartet) 2003\Disc 4\Anthony Braxton - 20 Standards (Quartet) 2003 [Disc 4] - 04. Take Five.wav
Longitud Pre-gap 0:00:04.74
Nivel Pico 89.1 %
Calidad de Pista 100.0 %
Copiar CRC 64E39828
Copia OK
Pista 5
Nombre de Archivo C:\DESCARGAS\Incoming\Anthony Braxton - 20 Standards (Quartet) 2003\Disc 4\Anthony Braxton - 20 Standards (Quartet) 2003 [Disc 4] - 05. Serenity.wav
Longitud Pre-gap 0:00:04.74
Nivel Pico 84.1 %
Calidad de Pista 100.0 %
Copiar CRC B306DB20
Copia OK
Sin Errores
Final del Informe
 
Содержание индексной карты (.CUE) CD1
REM GENRE Jazz
REM DATE 2003
REM DISCID 3211E905
REM COMMENT "ExactAudioCopy v0.99pb4"
PERFORMER "Anthony Braxton"
TITLE "20 Standards (Quartet) 2003 - [Disc 1]"
FILE "Anthony Braxton - 20 Standards (Quartet) 2003 - [Disc 1] - 01. All the Things You Are.wav" WAVE
TRACK 01 AUDIO
TITLE "All the Things You Are"
PERFORMER "Anthony Braxton"
INDEX 01 00:00:00
TRACK 02 AUDIO
TITLE "Lines for Lyons"
PERFORMER "Anthony Braxton"
INDEX 00 20:08:60
FILE "Anthony Braxton - 20 Standards (Quartet) 2003 - [Disc 1] - 02. Lines for Lyons.wav" WAVE
INDEX 01 00:00:00
TRACK 03 AUDIO
TITLE "April in Paris"
PERFORMER "Anthony Braxton"
INDEX 00 13:53:10
FILE "Anthony Braxton - 20 Standards (Quartet) 2003 - [Disc 1] - 03. April in Paris.wav" WAVE
INDEX 01 00:00:00
TRACK 04 AUDIO
TITLE "Green Dolphin Street"
PERFORMER "Anthony Braxton"
INDEX 00 12:26:22
FILE "Anthony Braxton - 20 Standards (Quartet) 2003 - [Disc 1] - 04. Green Dolphin Street.wav" WAVE
INDEX 01 00:00:00
TRACK 05 AUDIO
TITLE "Blues for Alice"
PERFORMER "Anthony Braxton"
INDEX 00 16:08:15
FILE "Anthony Braxton - 20 Standards (Quartet) 2003 - [Disc 1] - 05. Blues for Alice.wav" WAVE
INDEX 01 00:00:00
 
Содержание индексной карты (.CUE) CD2
REM GENRE Jazz
REM DATE 2003
REM DISCID 48127F05
REM COMMENT "ExactAudioCopy v0.99pb4"
PERFORMER "Anthony Braxton"
TITLE "20 Standards (Quartet) 2003 - [Disc 2]"
FILE "Anthony Braxton - 20 Standards (Quartet) 2003 - [Disc 2] - 01. Alone Together.wav" WAVE
TRACK 01 AUDIO
TITLE "Alone Together"
PERFORMER "Anthony Braxton"
INDEX 01 00:00:00
TRACK 02 AUDIO
TITLE "Waltz for Debbie"
PERFORMER "Anthony Braxton"
INDEX 00 18:26:57
FILE "Anthony Braxton - 20 Standards (Quartet) 2003 - [Disc 2] - 02. Waltz for Debbie.wav" WAVE
INDEX 01 00:00:00
TRACK 03 AUDIO
TITLE "For Heaven's Sake"
PERFORMER "Anthony Braxton"
INDEX 00 12:28:52
FILE "Anthony Braxton - 20 Standards (Quartet) 2003 - [Disc 2] - 03. For Heaven's Sake.wav" WAVE
INDEX 01 00:00:00
TRACK 04 AUDIO
TITLE "Freedom Jazz Dance"
PERFORMER "Anthony Braxton"
INDEX 00 13:40:36
FILE "Anthony Braxton - 20 Standards (Quartet) 2003 - [Disc 2] - 04. Freedom Jazz Dance.wav" WAVE
INDEX 01 00:00:00
TRACK 05 AUDIO
TITLE "The Song Is You"
PERFORMER "Anthony Braxton"
INDEX 00 14:49:19
FILE "Anthony Braxton - 20 Standards (Quartet) 2003 - [Disc 2] - 05. The Song Is You.wav" WAVE
INDEX 01 00:00:00
 
Содержание индексной карты (.CUE) CD3
REM GENRE Jazz
REM DATE 2003
REM DISCID 430F9605
REM COMMENT "ExactAudioCopy v0.99pb4"
PERFORMER "Anthony Braxton"
TITLE "20 Standards (Quartet) 2003 [Disc 3]"
FILE "Anthony Braxton - 20 Standards (Quartet) 2003 [Disc 3] - 01. The Duke.wav" WAVE
TRACK 01 AUDIO
TITLE "The Duke"
PERFORMER "Anthony Braxton"
INDEX 01 00:00:00
TRACK 02 AUDIO
TITLE "I Love You"
PERFORMER "Anthony Braxton"
INDEX 00 12:24:13
FILE "Anthony Braxton - 20 Standards (Quartet) 2003 [Disc 3] - 02. I Love You.wav" WAVE
INDEX 01 00:00:00
TRACK 03 AUDIO
TITLE "Lonnie's Lament"
PERFORMER "Anthony Braxton"
INDEX 00 13:48:35
FILE "Anthony Braxton - 20 Standards (Quartet) 2003 [Disc 3] - 03. Lonnie's Lament.wav" WAVE
INDEX 01 00:00:00
TRACK 04 AUDIO
TITLE "Blue Rondo Ala Turk"
PERFORMER "Anthony Braxton"
INDEX 00 08:05:29
FILE "Anthony Braxton - 20 Standards (Quartet) 2003 [Disc 3] - 04. Blue Rondo Ala Turk.wav" WAVE
INDEX 01 00:00:00
TRACK 05 AUDIO
TITLE "Invitation"
PERFORMER "Anthony Braxton"
INDEX 00 14:42:73
FILE "Anthony Braxton - 20 Standards (Quartet) 2003 [Disc 3] - 05. Invitation.wav" WAVE
INDEX 01 00:00:00
 
Содержание индексной карты (.CUE) CD4
REM GENRE Jazz
REM DATE 2003
REM DISCID 3611F405
REM COMMENT "ExactAudioCopy v0.99pb4"
PERFORMER "Anthony Braxton"
TITLE "20 Standards (Quartet) 2003 [Disc 4]"
FILE "Anthony Braxton - 20 Standards (Quartet) 2003 [Disc 4] - 01. Tune Up.wav" WAVE
TRACK 01 AUDIO
TITLE "Tune Up"
PERFORMER "Anthony Braxton"
INDEX 01 00:00:00
TRACK 02 AUDIO
TITLE "Remember"
PERFORMER "Anthony Braxton"
INDEX 00 19:16:15
FILE "Anthony Braxton - 20 Standards (Quartet) 2003 [Disc 4] - 02. Remember.wav" WAVE
INDEX 01 00:00:00
TRACK 03 AUDIO
TITLE "Moonlight in Vermont"
PERFORMER "Anthony Braxton"
INDEX 00 18:04:24
FILE "Anthony Braxton - 20 Standards (Quartet) 2003 [Disc 4] - 03. Moonlight in Vermont.wav" WAVE
INDEX 01 00:00:00
TRACK 04 AUDIO
TITLE "Take Five"
PERFORMER "Anthony Braxton"
INDEX 00 15:06:13
FILE "Anthony Braxton - 20 Standards (Quartet) 2003 [Disc 4] - 04. Take Five.wav" WAVE
INDEX 01 00:00:00
TRACK 05 AUDIO
TITLE "Serenity"
PERFORMER "Anthony Braxton"
INDEX 00 10:24:10
FILE "Anthony Braxton - 20 Standards (Quartet) 2003 [Disc 4] - 05. Serenity.wav" WAVE
INDEX 01 00:00:00
 
Состав
Anthony Braxton - saxophone
Andy Eulau - bass
Kevin Norton - percussion
Kevin O'Neil - guitar
Any questions -> support@pro-jazz.com. По всем вопросам пишите -> support@pro-jazz.com
03:51
242
Нет комментариев. Ваш будет первым!