Вы используете незарегистрированную версию компонента "Вкладки"!

Поиск

(avant-garde jazz/jazz-rock/noise) Vajuwaju - Vajuwaju - 2008, FLAC (image+.cue) lossless

Треклист:
Vajuwaju / Vajuwaju
Жанр: avant-garde jazz/jazz-rock/noise
Страна-производитель диска: Japan
Год издания диска: 2008
Издатель (лейбл): Vaju Records
Номер по каталогу: 001
Страна: Japan
Аудио кодек: FLAC (*.flac)
Тип рипа: image+.cue
Битрейт аудио: lossless
Продолжительность: 23:72
Источник (релизер): собственный рип
Наличие сканов в содержимом раздачи: да
Треклист:
1. Vow-Cha-Cha-Cha pt.1
2. Kouma
3. Vow-Cha-Cha-Cha pt.2
4. Tara-Tara
5. Zoo
Файл перезалит по техническим причинам
 
Лог создания рипа
Exact Audio Copy V0.99 prebeta 5 from 4. May 2009
EAC extraction logfile from 11. October 2010, 18:34
Vajuwaju / Vajuwaju
Used drive : Optiarc DVD RW AD-7243S Adapter: 0 ID: 1
Read mode : Secure
Utilize accurate stream : Yes
Defeat audio cache : Yes
Make use of C2 pointers : No
Read offset correction : 48
Overread into Lead-In and Lead-Out : No
Fill up missing offset samples with silence : Yes
Delete leading and trailing silent blocks : No
Null samples used in CRC calculations : Yes
Used interface : Native Win32 interface for Win NT & 2000
Used output format : User Defined Encoder
Selected bitrate : 768 kBit/s
Quality : High
Add ID3 tag : No
Command line compressor : C:\Program Files\Exact Audio Copy\FLAC\FLAC.EXE
Additional command line options : -6 -V -T "ARTIST=%a" -T "TITLE=%t" -T "ALBUM=%g" -T "DATE=%y" -T "TRACKNUMBER=%n" -T "GENRE=%m" -T "COMMENT=%e" %s -o %d
TOC of the extracted CD
Track | Start | Length | Start sector | End sector
---------------------------------------------------------
1 | 0:00.00 | 2:46.74 | 0 | 12523
2 | 2:46.74 | 7:32.06 | 12524 | 46429
3 | 10:19.05 | 1:33.01 | 46430 | 53405
4 | 11:52.06 | 3:23.48 | 53406 | 68678
5 | 15:15.54 | 9:36.09 | 68679 | 111887
Range status and errors
Selected range
Filename C:\Documents and Settings\S\Мои документы\Torrent раздача\Vajuwaju - Vajuwaju.wav
Peak level 99.8 %
Range quality 100.0 %
Test CRC A6897EF4
Copy CRC A6897EF4
Copy OK
No errors occurred
AccurateRip summary
Track 1 not present in database
Track 2 not present in database
Track 3 not present in database
Track 4 not present in database
Track 5 not present in database
None of the tracks are present in the AccurateRip database
End of status report
 
Состав
Koutaro Asano - baritone saxsophone
Haruhiko Tobata - tenor saxophone
Noriya Shimizu - trumpet
Nobukazu Sakamoto - electric trumpet & noise
Masaya Nakai - drums
Hitoshi Kawai - percussion
Hideo Hirabayashi - keybord
Другие раздачи
http://rutracker.org/forum/search.php?uid=17163016
По всем вопросам пишите личное сообщение пользователю M0p94ok.
03:52
165
Нет комментариев. Ваш будет первым!