Вы используете незарегистрированную версию компонента "Вкладки"!

Поиск

(Avant Garde, Free Jazz) Assif Tsahar & Cooper-Moore - America - 2003, FLAC (tracks+.cue) lossless

Треклист:
Assif Tsahar & Cooper-Moore / America
Жанр: Avant Garde, Free Jazz
Страна-производитель диска: USA
Год издания диска: 2003
Издатель (лейбл): Hopscotch
Номер по каталогу: HOP 18
Страна: USA
Аудио кодек: FLAC (*.flac)
Тип рипа: tracks+.cue
Битрейт аудио: lossless
Продолжительность: 51.35
Источник (релизер): what cd (bokee)
Наличие сканов в содержимом раздачи: нет
Треклист:
1. America (4:46)
2. Back Porch Chill (4:52)
3. Tuscarora's Cry (6:36)
4. 12th Avenue Messengers (3:33)
5. Lament For Trees (2:34)
6. The Tortoise & The Buzzard (3:11)
7. No Cracklin No Bread (5:07)
8. Lament For Trees (6:43)
9. Beyond The Years (5:06)
10. Wounded Knee (9:03)
 
Лог создания рипа
Exact Audio Copy V0.99 prebeta 5 from 4. May 2009
EAC extraction logfile from 20. July 2010, 15:18
Cooper Moore & Assif Tsahar / America
Used drive : TSSTcorpCDDVDW SH-S222A Adapter: 0 ID: 0
Read mode : Secure
Utilize accurate stream : Yes
Defeat audio cache : Yes
Make use of C2 pointers : No
Read offset correction : 6
Overread into Lead-In and Lead-Out : No
Fill up missing offset samples with silence : Yes
Delete leading and trailing silent blocks : No
Null samples used in CRC calculations : Yes
Used interface : Native Win32 interface for Win NT & 2000
Gap handling : Appended to previous track
Used output format : User Defined Encoder
Selected bitrate : 320 kBit/s
Quality : High
Add ID3 tag : No
Command line compressor : C:\Program Files\Exact Audio Copy\Flac\flac.exe
Additional command line options : -V -8 -T "artist=%a" -T "title=%t" -T "album=%g" -T "date=%y" -T "tracknumber=%n" -T "genre=%m" %s
TOC of the extracted CD
Track | Start | Length | Start sector | End sector
---------------------------------------------------------
1 | 0:00.00 | 4:46.61 | 0 | 21510
2 | 4:46.61 | 4:52.21 | 21511 | 43431
3 | 9:39.07 | 6:36.73 | 43432 | 73204
4 | 16:16.05 | 3:33.16 | 73205 | 89195
5 | 19:49.21 | 2:34.34 | 89196 | 100779
6 | 22:23.55 | 3:11.19 | 100780 | 115123
7 | 25:34.74 | 5:07.22 | 115124 | 138170
8 | 30:42.21 | 6:43.40 | 138171 | 168435
9 | 37:25.61 | 5:06.47 | 168436 | 191432
10 | 42:32.33 | 9:03.37 | 191433 | 232194
Track 1
Filename C:\Documents and Settings\Uporabnik\My Documents\My Music\Cooper Moore & Assif Tsahar - America\01 America.wav
Pre-gap length 0:00:02.00
Peak level 100.0 %
Track quality 100.0 %
Test CRC 17FD8EEB
Copy CRC 17FD8EEB
Track not present in AccurateRip database
Copy OK
Track 2
Filename C:\Documents and Settings\Uporabnik\My Documents\My Music\Cooper Moore & Assif Tsahar - America\02 Back Porch Chill.wav
Pre-gap length 0:00:02.00
Peak level 83.4 %
Track quality 100.0 %
Test CRC C9435692
Copy CRC C9435692
Track not present in AccurateRip database
Copy OK
Track 3
Filename C:\Documents and Settings\Uporabnik\My Documents\My Music\Cooper Moore & Assif Tsahar - America\03 Tuscarora's Cry.wav
Pre-gap length 0:00:02.00
Peak level 88.3 %
Track quality 100.0 %
Test CRC FCE5BCC4
Copy CRC FCE5BCC4
Track not present in AccurateRip database
Copy OK
Track 4
Filename C:\Documents and Settings\Uporabnik\My Documents\My Music\Cooper Moore & Assif Tsahar - America\04 12th Avenue Messengers.wav
Pre-gap length 0:00:02.00
Peak level 89.0 %
Track quality 100.0 %
Test CRC EAED98ED
Copy CRC EAED98ED
Track not present in AccurateRip database
Copy OK
Track 5
Filename C:\Documents and Settings\Uporabnik\My Documents\My Music\Cooper Moore & Assif Tsahar - America\05 Lament For Trees.wav
Pre-gap length 0:00:03.00
Peak level 64.9 %
Track quality 100.0 %
Test CRC 952ADD61
Copy CRC 952ADD61
Track not present in AccurateRip database
Copy OK
Track 6
Filename C:\Documents and Settings\Uporabnik\My Documents\My Music\Cooper Moore & Assif Tsahar - America\06 The Tortoise & The Buzzard.wav
Pre-gap length 0:00:02.00
Peak level 99.8 %
Track quality 99.9 %
Test CRC DAE3919F
Copy CRC DAE3919F
Track not present in AccurateRip database
Copy OK
Track 7
Filename C:\Documents and Settings\Uporabnik\My Documents\My Music\Cooper Moore & Assif Tsahar - America\07 No Cracklin No Bread.wav
Pre-gap length 0:00:02.00
Peak level 100.0 %
Track quality 100.0 %
Test CRC B3170336
Copy CRC B3170336
Track not present in AccurateRip database
Copy OK
Track 8
Filename C:\Documents and Settings\Uporabnik\My Documents\My Music\Cooper Moore & Assif Tsahar - America\08 Lament For Trees.wav
Pre-gap length 0:00:02.00
Peak level 99.4 %
Track quality 100.0 %
Test CRC E74CACA7
Copy CRC E74CACA7
Track not present in AccurateRip database
Copy OK
Track 9
Filename C:\Documents and Settings\Uporabnik\My Documents\My Music\Cooper Moore & Assif Tsahar - America\09 Beyond The Years.wav
Pre-gap length 0:00:02.00
Peak level 88.8 %
Track quality 100.0 %
Test CRC B81C5028
Copy CRC B81C5028
Track not present in AccurateRip database
Copy OK
Track 10
Filename C:\Documents and Settings\Uporabnik\My Documents\My Music\Cooper Moore & Assif Tsahar - America\10 Wounded Knee.wav
Pre-gap length 0:00:02.00
Peak level 99.8 %
Track quality 100.0 %
Test CRC 8338EB21
Copy CRC 8338EB21
Track not present in AccurateRip database
Copy OK
None of the tracks are present in the AccurateRip database
No errors occurred
End of status report
 
Содержание индексной карты (.CUE)
REM GENRE Jazz
REM DATE 2003
REM DISCID 920C170A
REM COMMENT "ExactAudioCopy v0.99pb5"
FILE "Cooper Moore & Assif Tsahar - America\01 America.wav" WAVE
TRACK 01 AUDIO
FLAGS DCP
INDEX 01 00:00:00
TRACK 02 AUDIO
FLAGS DCP
INDEX 00 04:44:61
FILE "Cooper Moore & Assif Tsahar - America\02 Back Porch Chill.wav" WAVE
INDEX 01 00:00:00
TRACK 03 AUDIO
FLAGS DCP
INDEX 00 04:50:21
FILE "Cooper Moore & Assif Tsahar - America\03 Tuscarora's Cry.wav" WAVE
INDEX 01 00:00:00
TRACK 04 AUDIO
FLAGS DCP
INDEX 00 06:34:73
FILE "Cooper Moore & Assif Tsahar - America\04 12th Avenue Messengers.wav" WAVE
INDEX 01 00:00:00
TRACK 05 AUDIO
FLAGS DCP
INDEX 00 03:30:16
FILE "Cooper Moore & Assif Tsahar - America\05 Lament For Trees.wav" WAVE
INDEX 01 00:00:00
TRACK 06 AUDIO
FLAGS DCP
INDEX 00 02:32:34
FILE "Cooper Moore & Assif Tsahar - America\06 The Tortoise & The Buzzard.wav" WAVE
INDEX 01 00:00:00
TRACK 07 AUDIO
FLAGS DCP
INDEX 00 03:09:19
FILE "Cooper Moore & Assif Tsahar - America\07 No Cracklin No Bread.wav" WAVE
INDEX 01 00:00:00
TRACK 08 AUDIO
FLAGS DCP
INDEX 00 05:05:22
FILE "Cooper Moore & Assif Tsahar - America\08 Lament For Trees.wav" WAVE
INDEX 01 00:00:00
TRACK 09 AUDIO
FLAGS DCP
INDEX 00 06:41:40
FILE "Cooper Moore & Assif Tsahar - America\09 Beyond The Years.wav" WAVE
INDEX 01 00:00:00
TRACK 10 AUDIO
FLAGS DCP
INDEX 00 05:04:47
FILE "Cooper Moore & Assif Tsahar - America\10 Wounded Knee.wav" WAVE
INDEX 01 00:00:00
 
Об альбоме (сборнике)
"Half protest statement and half call for renewal, America offers a wonderful combination of the familiar and the unexpected. The heartland music known as Americana-for lack of a better term-meets up here with an eager partner in the form of improvisation.
As a definitive missive of social protest, the opening track presents the only vocals on the record: a cry for justice ("America, do you think about the lives that you have stolen?") followed by a statement of return ("America, we're gonna put you on the homeward bound train"). Cooper-Moore sings and plays the diddley bow (a rumbling bass instrument with a percussive attack) while Assif Tsahar adds intermittent cries on tenor saxophone. The loping shuffle has a catchy groove which works as a complement for Tsahar's shrill blowing, together laying out the emotional themes to which the duo will refer through the course of America.
Tsahar, whose reeds are familiar in out jazz circles for their energy and timbral range, takes multiple opportunities here to amble along the relative straight and narrow. The aptly titled "Back Porch Chill" offers a relaxed country blues, as does "Beyond The Years"; the two pieces identically entitled "Lament For Trees" unfold as sparse, open ballads with gentle overtones of swing. None of these tunes would work without Cooper-Moore's thoroughly grounded, organic playing on banjo, piano, mouth bow, and diddley-bow. Cooper-Moore has never been one for the spotlight and his obvious humility serves this project well.
But lest you get too comfortable, America shoots some fiery sparks as well. "12th Avenue Messengers" juxtaposes Tsahar's overblown, emotional horn alongside punchy drums and cymbal. It's a pointed and binding reminder of the record's message. "Wounded Knee" opens up in a similarly edgy, forward vein. Cooper-Moore, for all of his work on the folksy instruments, is in his true element on the piano, which he hammers mercilessly in swirls around Tsahar. Following an extended open stretch, both players close out the record with another emphatic blast.
For its open candor and unforced message, America is a near masterpiece. It's most certainly not for the faint of heart, despite a generally friendly feel, but that's all part of the message. This is unequivocally one of the finest records to emerge this year. (Even though friendly critics everywhere have assembled their lists before they even had a chance to hear the disc. Their loss, not yours, at least in this case.)"-Nils Jacobson, All About Jazz
 
Состав
Cooper-Moore - piano, diddley-bo, banjo, mouth bow, drum-skins & cymbal
Assif Tsahar - tenor sax, bass clarinet, classical guitar
По всем вопросам пишите личное сообщение пользователю M0p94ok.
03:52
176
Нет комментариев. Ваш будет первым!