Поиск

(avant-garde jazz) Rob Price Quartet - I Really Do Not See The Signal - 2006, FLAC (image+.cue) lossless

Треклист:
Rob Price Quartet / I Really Do Not See The Signal
Жанр: avant-garde jazz
Страна-производитель диска: USA
Год издания диска: 2006
Издатель (лейбл): Gutbrain Records
Номер по каталогу: GR06
Страна: USA
Аудио кодек: FLAC (*.flac)
Тип рипа: image+.cue
Битрейт аудио: lossless
Продолжительность: 52:69
Источник (релизер): собственный рип
Наличие сканов в содержимом раздачи: да
Треклист:
1. I really Do Not See The Signal
2. Girasol
3. Modern Mongoose
4. Dashiell Hammet & Barbara Pym
5. Viae Ferae
6. Chambara
7. Mango
8. H.P. Lovecraft Slept Here
 
Лог создания рипа
Exact Audio Copy V0.99 prebeta 5 from 4. May 2009
EAC extraction logfile from 10. October 2010, 17:55
Rob Price Quartet / I Really Do Not See The Signal
Used drive : Optiarc DVD RW AD-7243S Adapter: 0 ID: 1
Read mode : Secure
Utilize accurate stream : Yes
Defeat audio cache : Yes
Make use of C2 pointers : No
Read offset correction : 48
Overread into Lead-In and Lead-Out : No
Fill up missing offset samples with silence : Yes
Delete leading and trailing silent blocks : No
Null samples used in CRC calculations : Yes
Used interface : Native Win32 interface for Win NT & 2000
Used output format : User Defined Encoder
Selected bitrate : 768 kBit/s
Quality : High
Add ID3 tag : No
Command line compressor : C:\Program Files\Exact Audio Copy\FLAC\FLAC.EXE
Additional command line options : -6 -V -T "ARTIST=%a" -T "TITLE=%t" -T "ALBUM=%g" -T "DATE=%y" -T "TRACKNUMBER=%n" -T "GENRE=%m" -T "COMMENT=%e" %s -o %d
TOC of the extracted CD
Track | Start | Length | Start sector | End sector
---------------------------------------------------------
1 | 0:00.00 | 6:37.05 | 0 | 29779
2 | 6:37.05 | 7:38.33 | 29780 | 64162
3 | 14:15.38 | 5:43.64 | 64163 | 89951
4 | 19:59.27 | 5:47.63 | 89952 | 116039
5 | 25:47.15 | 8:38.23 | 116040 | 154912
6 | 34:25.38 | 6:05.66 | 154913 | 182353
7 | 40:31.29 | 6:41.62 | 182354 | 212490
8 | 47:13.16 | 7:20.41 | 212491 | 245531
Range status and errors
Selected range
Filename C:\Documents and Settings\S\Мои документы\Torrent раздача\Rob Price Quartet - I Really Do Not See The Signal.wav
Peak level 100.0 %
Range quality 100.0 %
Test CRC DA5B5B0A
Copy CRC DA5B5B0A
Copy OK
No errors occurred
AccurateRip summary
Track 1 not present in database
Track 2 not present in database
Track 3 not present in database
Track 4 not present in database
Track 5 not present in database
Track 6 not present in database
Track 7 not present in database
Track 8 not present in database
None of the tracks are present in the AccurateRip database
End of status report
 
Состав
Rob Price - Guitar
Ellery Eskelin - tenor saxophone
Trevor Dunn - bass
Jim Black - drums
Другие раздачи
http://rutracker.org/forum/search.php?uid=17163016
По всем вопросам пишите личное сообщение пользователю M0p94ok.
03:50
151
Нет комментариев. Ваш будет первым!