Вы используете незарегистрированную версию компонента "Вкладки"!

Поиск

(Free Improvisation / Modern Creative / Solo Piano) Marilyn Lerner - Miss Overboard! - 1994, FLAC (image+.cue) lossless

(Free Improvisation / Modern Creative / Solo Piano) Marilyn Lerner - Miss Overboard! - 1994, FLAC (image+.cue) lossless
Треклист:
Marilyn Lerner - Miss Overboard!
Жанр: Free Improvisation / Modern Creative / Solo Piano
Страна-производитель диска: Canada
Год издания диска: 1994
Издатель (лейбл): Justin Time Records
Номер по каталогу: JUST 63-2
Страна (исполнителя): Canada
Аудио кодек: FLAC (*.flac)
Тип рипа: image+.cue
Битрейт аудио: lossless
Продолжительность: 51:40
Источник (релизер): собственный рип с оригинального CD (Darkman)
Наличие сканов в содержимом раздачи: да (полный набор сканов, 300 dpi)
Треклист:
01. Miss Overboard!
02. Song For Mary
03. Something Said
04. A`walk With You
05. Naiadam And Naieye
06. Improvisation No1
07. Chocolate Nights
08. Just Below The Surface
09. News Travels Fast In The Desert
10. Story About Love
11. Healing Hands
Marilyn Lerner - piano
Recorded at the Winnipeg Art Gallery on December 13, 14 & 15, 1993 and on January 15, 1994 on the Bosendorfer grand piano.
Web Site: http://www.marilynlerner.com
 
Лог создания рипа (EAC Log)
Exact Audio Copy V0.99 prebeta 5 from 4. May 2009
EAC extraction logfile from 9. October 2010, 16:59
Marilyn Lerner / Miss Overboard!
Used drive : HL-DT-STDVD-RAM GSA-H54N Adapter: 0 ID: 0
Read mode : Secure
Utilize accurate stream : Yes
Defeat audio cache : Yes
Make use of C2 pointers : No
Read offset correction : 102
Overread into Lead-In and Lead-Out : No
Fill up missing offset samples with silence : Yes
Delete leading and trailing silent blocks : No
Null samples used in CRC calculations : Yes
Used interface : Native Win32 interface for Win NT & 2000
Used output format : User Defined Encoder
Selected bitrate : 320 kBit/s
Quality : High
Add ID3 tag : No
Command line compressor : C:\Program Files\Exact Audio Copy\Flac\flac.exe
Additional command line options : -8 -V %s
TOC of the extracted CD
Track | Start | Length | Start sector | End sector
---------------------------------------------------------
1 | 0:00.00 | 6:48.27 | 0 | 30626
2 | 6:48.27 | 5:57.45 | 30627 | 57446
3 | 12:45.72 | 3:46.20 | 57447 | 74416
4 | 16:32.17 | 4:51.05 | 74417 | 96246
5 | 21:23.22 | 5:38.15 | 96247 | 121611
6 | 27:01.37 | 3:51.38 | 121612 | 138974
7 | 30:53.00 | 2:36.37 | 138975 | 150711
8 | 33:29.37 | 3:48.28 | 150712 | 167839
9 | 37:17.65 | 2:47.42 | 167840 | 180406
10 | 40:05.32 | 5:32.65 | 180407 | 205371
11 | 45:38.22 | 6:01.63 | 205372 | 232509
Range status and errors
Selected range
Filename C:\EAC\Marilyn Lerner - Miss Overboard!.wav
Peak level 94.6 %
Range quality 99.9 %
Test CRC 0F04AD51
Copy CRC 0F04AD51
Copy OK
No errors occurred
AccurateRip summary
Track 1 not present in database
Track 2 not present in database
Track 3 not present in database
Track 4 not present in database
Track 5 not present in database
Track 6 not present in database
Track 7 not present in database
Track 8 not present in database
Track 9 not present in database
Track 10 not present in database
Track 11 not present in database
None of the tracks are present in the AccurateRip database
End of status report
 
Pic))
По всем вопросам пишите личное сообщение пользователю M0p94ok.
03:50
187
Нет комментариев. Ваш будет первым!