Вы используете незарегистрированную версию компонента "Вкладки"!

Поиск

(Jazzcore / Noise Rock / Hardcore Punk / Industrial / Free Jazz) God - Consumed (Live) (1993) & Appeal To Human Greed (EP) (1995), FLAC (tracks+.cue), lossless

(Jazzcore / Noise Rock / Hardcore Punk / Industrial / Free Jazz) God - Consumed (Live) (1993) & Appeal To Human Greed (EP) (1995), FLAC (tracks+.cue), lossless
Треклист:
God / CD & EP

Жанр: Jazzcore / Noise Rock / Hardcore Punk / Industrial / Free Jazz
Страна-производитель дисков: England
Страна: England
Аудиокодек: FLAC (*.flac)
Тип рипа: tracks+.cue
Битрейт аудио: lossless
Продолжительность: 1:44:25
Источник: What.cd
Наличие сканов в содержимом раздачи: нет
 
Consumed (Live) (1993)

Year: 1993
Label: Sentrax
Catalog#: SET 5 CD
Time: 1:07:52
Трэклист:
01. Head On Collision [12:34]
02. Suck Like A Leech [10:50]
03. Detox [17:20]
04. Lust [27:08]
 
Лог создания рипа
EAC extraction logfile from 30. March 2007, 0:55 for CD
God / Consumed
Used drive : _NEC DVD_RW ND-3520AW Adapter: 3 ID: 0
Read mode : Secure with NO C2, accurate stream, disable cache
Read offset correction : 48
Overread into Lead-In and Lead-Out : No
Used output format : C:\Program Files\FLAC\flac.exe (User Defined Encoder)
192 kBit/s
Additional command line options : -V -8 -T "artist=%a" -T "title=%t" -T "album=%g" -T "date=%y" -T "tracknumber=%n" -T "genre=%m" %s
Other options :
Fill up missing offset samples with silence : Yes
Delete leading and trailing silent blocks : No
Installed external ASPI interface
Track 1
Filename D:\Ripping\God - Consumed\01 - Head On Collision.wav
Pre-gap length 0:00:02.33
Peak level 94.5 %
Track quality 100.0 %
Test CRC CF1F3E34
Copy CRC CF1F3E34
Copy OK
Track 2
Filename D:\Ripping\God - Consumed\02 - Suck Like A Leech.wav
Pre-gap length 0:00:04.65
Peak level 94.5 %
Track quality 99.9 %
Test CRC 56B13DD4
Copy CRC 56B13DD4
Copy OK
Track 3
Filename D:\Ripping\God - Consumed\03 - Detox.wav
Pre-gap length 0:00:05.16
Peak level 94.5 %
Track quality 100.0 %
Test CRC 15BEB392
Copy CRC 15BEB392
Copy OK
Track 4
Filename D:\Ripping\God - Consumed\04 - Lust.wav
Pre-gap length 0:00:06.19
Suspicious position 0:25:27
Suspicious position 0:25:45
Suspicious position 0:25:52
Suspicious position 0:26:16
Suspicious position 0:26:22 - 0:26:23
Suspicious position 0:26:25 - 0:26:27
Suspicious position 0:26:30
Suspicious position 0:26:35
Suspicious position 0:26:41
Suspicious position 0:26:44 - 0:26:45
Suspicious position 0:26:48 - 0:26:49
Suspicious position 0:26:51 - 0:26:53
Suspicious position 0:26:56 - 0:26:57
Suspicious position 0:26:59
Suspicious position 0:27:01
Suspicious position 0:27:03
Suspicious position 0:27:05
Peak level 94.5 %
Track quality 98.3 %
Test CRC 30633E96
Copy CRC D71E223A
Copy finished
There were errors
End of status report
 
Содержание индексной карты (.CUE)
PERFORMER "God"
TITLE "Consumed"
FILE "01 - Head On Collision.flac" WAVE
TRACK 01 AUDIO
TITLE "Head On Collision"
PERFORMER "God"
INDEX 01 00:00:00
TRACK 02 AUDIO
TITLE "Suck Like A Leech"
PERFORMER "God"
INDEX 00 12:29:30
FILE "02 - Suck Like A Leech.flac" WAVE
INDEX 01 00:00:00
TRACK 03 AUDIO
TITLE "Detox"
PERFORMER "God"
INDEX 00 10:44:30
FILE "03 - Detox.flac" WAVE
INDEX 01 00:00:00
TRACK 04 AUDIO
TITLE "Lust"
PERFORMER "God"
INDEX 00 17:13:10
FILE "04 - Lust.flac" WAVE
INDEX 01 00:00:00
 
Appeal To Human Greed (EP) (1995)

Year: 1995
Label: Big Cat UK Records
Catalog#: ABB 79XCD
Time: 36:33
Трэклист:
01. Gold Teeth (Charles Atlas Mix) [4:44]
02. Bloodstream (The Evening Redness In The West Mix) [10:33]
03. On All Fours (Biomechanical Mix) [4:46]
04. Tunnel (Electro-Convulsive Mix) [6:44]
05. Bloodstream (Peckinpah Mix) [9:45]
 
Лог создания рипа
Exact Audio Copy V0.99 prebeta 3 from 28. July 2007
EAC extraction logfile from 21. November 2007, 23:41
God / Appeal To Human Greed
Used drive : _NEC DVD_RW ND-3520AW Adapter: 3 ID: 0
Read mode : Secure
Utilize accurate stream : Yes
Defeat audio cache : Yes
Make use of C2 pointers : No
Read offset correction : 48
Overread into Lead-In and Lead-Out : No
Fill up missing offset samples with silence : Yes
Delete leading and trailing silent blocks : No
Null samples used in CRC calculations : Yes
Used interface : Installed external ASPI interface
Gap handling : Appended to previous track
Used output format : User Defined Encoder
Selected bitrate : 192 kBit/s
Quality : High
Add ID3 tag : No
Command line compressor : C:\Program Files\FLAC\flac.exe
Additional command line options : -8 -A tukey(0.25) -A gauss(0.1875) -b 4096 -V -T "artist=%a" -T "title=%t" -T "album=%g" -T "date=%y" -T "tracknumber=%n" -T "genre=%m" %s --sector-align
TOC of the extracted CD
Track | Start | Length | Start sector | End sector
---------------------------------------------------------
1 | 0:00.00 | 4:44.35 | 0 | 21334
2 | 4:44.35 | 10:33.15 | 21335 | 68824
3 | 15:17.50 | 4:46.10 | 68825 | 90284
4 | 20:03.60 | 6:44.08 | 90285 | 120592
5 | 26:47.68 | 9:44.67 | 120593 | 164459
Track 1
Filename D:\Ripping\God - Appeal To Human Greed\01 - Gold Teeth (Charles Atlas Mix).wav
Pre-gap length 0:00:02.00
Peak level 99.7 %
Track quality 100.0 %
Test CRC C343D0DC
Copy CRC C343D0DC
Track not present in AccurateRip database
Copy OK
Track 2
Filename D:\Ripping\God - Appeal To Human Greed\02 - Bloodstream (The Evening Redness In The West Mix).wav
Pre-gap length 0:00:01.42
Peak level 97.6 %
Track quality 100.0 %
Test CRC 350FE9E6
Copy CRC 350FE9E6
Track not present in AccurateRip database
Copy OK
Track 3
Filename D:\Ripping\God - Appeal To Human Greed\03 - On All Fours (Biomechanial Mix).wav
Pre-gap length 0:00:01.16
Peak level 96.8 %
Track quality 100.0 %
Test CRC E0BE75C7
Copy CRC E0BE75C7
Track not present in AccurateRip database
Copy OK
Track 4
Filename D:\Ripping\God - Appeal To Human Greed\04 - Tunnel (Electro-Convulsive Mix).wav
Pre-gap length 0:00:01.33
Peak level 96.8 %
Track quality 99.9 %
Test CRC B316B3FB
Copy CRC B316B3FB
Track not present in AccurateRip database
Copy OK
Track 5
Filename D:\Ripping\God - Appeal To Human Greed\05 - Bloodstream (Peckinpah Mix).wav
Peak level 97.0 %
Track quality 100.0 %
Test CRC EB2AE1C2
Copy CRC EB2AE1C2
Track not present in AccurateRip database
Copy OK
None of the tracks are present in the AccurateRip database
No errors occurred
End of status report
 
Содержание индексной карты (.CUE)
REM GENRE Other
REM DATE 1995
REM DISCID 3D089005
REM COMMENT "ExactAudioCopy v0.99pb3"
PERFORMER "God"
TITLE "Appeal To Human Greed"
FILE "01 - Gold Teeth (Charles Atlas Mix).flac" WAVE
TRACK 01 AUDIO
TITLE "Gold Teeth (Charles Atlas Mix)"
PERFORMER "God"
INDEX 01 00:00:00
TRACK 02 AUDIO
TITLE "Bloodstream (The Evening Redness In The West Mix)"
PERFORMER "God"
INDEX 00 04:43:03
FILE "02 - Bloodstream (The Evening Redness In The West Mix).flac" WAVE
INDEX 01 00:00:00
TRACK 03 AUDIO
TITLE "On All Fours (Biomechanial Mix)"
PERFORMER "God"
INDEX 00 10:32:03
FILE "03 - On All Fours (Biomechanial Mix).flac" WAVE
INDEX 01 00:00:00
TRACK 04 AUDIO
TITLE "Tunnel (Electro-Convulsive Mix)"
PERFORMER "God"
INDEX 00 04:44:60
FILE "04 - Tunnel (Electro-Convulsive Mix).flac" WAVE
INDEX 01 00:00:00
FILE "05 - Bloodstream (Peckinpah Mix).flac" WAVE
TRACK 05 AUDIO
TITLE "Bloodstream (Peckinpah Mix)"
PERFORMER "God"
INDEX 01 00:00:00
Ещё:
God - Loco
God - Possession
God - The Anatomy Of Addiction
Any questions -> support@pro-jazz.com. По всем вопросам пишите -> support@pro-jazz.com
15:17
158
Нет комментариев. Ваш будет первым!