Вы используете незарегистрированную версию компонента "Вкладки"!

Поиск

(Free Jazz, Free Improvisation) Elton Dean Quintet - Silent Knowledge - 1996, FLAC (tracks+.cue), lossless

Треклист:
Elton Dean Quintet / Silent Knowledge
Жанр: Free Jazz, Free Improvisation
Страна-производитель диска: US
Год издания диска: 1996
Издатель (лейбл): Cuneiform Records
Номер по каталогу: Rune 83
Страна: UK
Аудиокодек: FLAC (*.flac)
Тип рипа: tracks+.cue
Битрейт аудио: lossless
Продолжительность: 68:52
Источник (релизер): avaxhome.ws
Наличие сканов в содержимом раздачи: да
Треклист:
1. Gualchos 28:37
2. Sound Awake 14:56
3. First In The Wagon 11:20
4. Trains For Tooting 13:54
 
Лог создания рипа
Exact Audio Copy V0.99 prebeta 4 from 23. January 2008
EAC extraction logfile from 21. December 2010, 22:40
Elton Dean Quintet / Silent Knowledge
Used drive : HL-DT-STDVDRAM GSA-H42N Adapter: 0 ID: 1
Read mode : Secure
Utilize accurate stream : Yes
Defeat audio cache : Yes
Make use of C2 pointers : No
Read offset correction : 667
Overread into Lead-In and Lead-Out : No
Fill up missing offset samples with silence : Yes
Delete leading and trailing silent blocks : No
Null samples used in CRC calculations : Yes
Used interface : Native Win32 interface for Win NT & 2000
Gap handling : Appended to previous track
Used output format : User Defined Encoder
Selected bitrate : 320 kBit/s
Quality : High
Add ID3 tag : No
Command line compressor : C:\Program Files\Exact Audio Copy\Flac\flac.exe
Additional command line options : -8 -V -T "ARTIST=%a" -T "TITLE=%t" -T "ALBUM=%g" -T "DATE=%y" -T "TRACKNUMBER=%n" -T "GENRE=%m" -T "COMMENT=EAC Flac 1.1.4 -8" %s
TOC of the extracted CD
Track | Start | Length | Start sector | End sector
---------------------------------------------------------
1 | 0:00.00 | 28:39.72 | 0 | 128996
2 | 28:39.72 | 14:55.45 | 128997 | 196166
3 | 43:35.42 | 11:22.48 | 196167 | 247364
4 | 54:58.15 | 13:54.30 | 247365 | 309944
Track 1
Filename D:\My Rips\Elton Dean Quintet - 1996 - Silent Knowledge\01 - Gualchos .wav
Pre-gap length 0:00:02.00
Peak level 98.8 %
Track quality 100.0 %
Test CRC 70E66E59
Copy CRC 70E66E59
Track not present in AccurateRip database
Copy OK
Track 2
Filename D:\My Rips\Elton Dean Quintet - 1996 - Silent Knowledge\02 - Sound Awake .wav
Pre-gap length 0:00:02.56
Peak level 98.8 %
Track quality 100.0 %
Test CRC 633106FF
Copy CRC 633106FF
Track not present in AccurateRip database
Copy OK
Track 3
Filename D:\My Rips\Elton Dean Quintet - 1996 - Silent Knowledge\03 - First In The Wagon .wav
Peak level 98.8 %
Track quality 100.0 %
Test CRC 48420FF8
Copy CRC 48420FF8
Track not present in AccurateRip database
Copy OK
Track 4
Filename D:\My Rips\Elton Dean Quintet - 1996 - Silent Knowledge\04 - Trains For Tooting .wav
Pre-gap length 0:00:02.57
Peak level 98.8 %
Track quality 100.0 %
Test CRC 799D578C
Copy CRC 799D578C
Track not present in AccurateRip database
Copy OK
None of the tracks are present in the AccurateRip database
No errors occurred
End of status report
 
Содержание индексной карты (.CUE)

 
Old Cue
REM GENRE "British Jazz"
REM DATE 1996
REM DISCID 23102404
REM COMMENT "ExactAudioCopy v0.99pb4"
PERFORMER "Elton Dean Quintet"
TITLE "Silent Knowledge"
FILE "Elton Dean Quintet - 1996 - Silent Knowledge\01 - Gualchos .wav" WAVE
TRACK 01 AUDIO
TITLE "Gualchos"
PERFORMER "Elton Dean Quintet"
INDEX 01 00:00:00
TRACK 02 AUDIO
TITLE "Sound Awake"
PERFORMER "Elton Dean Quintet"
INDEX 00 28:37:30
FILE "Elton Dean Quintet - 1996 - Silent Knowledge\02 - Sound Awake .wav" WAVE
INDEX 01 00:00:00
FILE "Elton Dean Quintet - 1996 - Silent Knowledge\03 - First In The Wagon .wav" WAVE
TRACK 03 AUDIO
TITLE "First In The Wagon"
PERFORMER "Elton Dean Quintet"
INDEX 01 00:00:00
TRACK 04 AUDIO
TITLE "Trains For Tooting"
PERFORMER "Elton Dean Quintet"
INDEX 00 11:20:05
FILE "Elton Dean Quintet - 1996 - Silent Knowledge\04 - Trains For Tooting .wav" WAVE
INDEX 01 00:00:00
 
Corrected Cue
REM GENRE "British Jazz"
REM DATE 1996
REM DISCID 23102404
REM COMMENT "ExactAudioCopy v0.99pb4"
PERFORMER "Elton Dean Quintet"
TITLE "Silent Knowledge"
FILE "01 - Gualchos .wav" WAVE
TRACK 01 AUDIO
TITLE "Gualchos"
PERFORMER "Elton Dean Quintet"
INDEX 01 00:00:00
TRACK 02 AUDIO
TITLE "Sound Awake"
PERFORMER "Elton Dean Quintet"
INDEX 00 28:37:30
FILE "02 - Sound Awake .wav" WAVE
INDEX 01 00:00:00
FILE "03 - First In The Wagon .wav" WAVE
TRACK 03 AUDIO
TITLE "First In The Wagon"
PERFORMER "Elton Dean Quintet"
INDEX 01 00:00:00
TRACK 04 AUDIO
TITLE "Trains For Tooting"
PERFORMER "Elton Dean Quintet"
INDEX 00 11:20:05
FILE "04 - Trains For Tooting .wav" WAVE
INDEX 01 00:00:00
 
Лог проверки качества
d:\>d:\aucdtect -d/-m0 d:\zzz\*.wav
auCDtect: CD records authenticity detector, version 0.8.2
Copyright (c) 2004 Oleg Berngardt. All rights reserved.
Copyright (c) 2004 Alexander Djourik. All rights reserved.
------------------------------------------------------------
Processing file: [01. Gualchos.wav]
------------------------------------------------------------
This track looks like CDDA with probability 100%
------------------------------------------------------------
Processing file: [02. Sound Awake.wav]
------------------------------------------------------------
This track looks like CDDA with probability 100%
------------------------------------------------------------
Processing file: [03. First In The Wagon.wav]
------------------------------------------------------------
This track looks like CDDA with probability 100%
------------------------------------------------------------
Processing file: [04. Trains For Tooting.wav]
------------------------------------------------------------
This track looks like CDDA with probability 100%
------------------------------------------------------------
Final Conclusion:
------------------------------------------------------------
These tracks looks like CDDA with probability 100%
 
Скриншот спектра частот
Доп. информация:
 
Album Info
Recorded June 1st, 1995 at The Premises, London, England.
 
Состав
Elton Dean: alto sax, saxello
Sophia Domancich: piano
Tony Levin: drums
Paul Dunmall: tenor sax
Paul Rogers: bass
По всем вопросам пишите личное сообщение пользователю M0p94ok.
15:16
166
Нет комментариев. Ваш будет первым!