Вы используете незарегистрированную версию компонента "Вкладки"!

Поиск

(Avant-Garde Jazz, Free Improvisation) Green Room - Hidden Music - 1994, APE (image+.cue), lossless

Треклист:
Green Room / Hidden Music
Жанр: Avant-Garde Jazz, Free Improvisation
Страна-производитель диска: Scotland
Год издания диска: 1994
Издатель (лейбл): Leo
Номер по каталогу: LR OO7
Страна: UK, Totnes
Аудиокодек: APE (*.ape)
Тип рипа: image+.cue
Битрейт аудио: lossless
Продолжительность: 00:58:02
Источник (релизер): barin99
Наличие сканов в содержимом раздачи: да
Треклист:
1. Rotations 3:44
2. Fable 3:51
3. Bone 2:23
4. Big Foot 3:26
5. Totem 2:28
6. Flux 16:42
7. Mosquito 1:25
8. Fracture 3:40
9. Embryo 5:00
10. Satellites 15:17
 
Лог создания рипа
Exact Audio Copy V1.0 beta 1 from 15. November 2010
EAC extraction logfile from 1. June 2011, 22:18
Green Room / Hidden Music
Used drive : TSSTcorpDVD+-RW TS-L532B Adapter: 1 ID: 0
Read mode : Secure
Utilize accurate stream : Yes
Defeat audio cache : Yes
Make use of C2 pointers : No
Read offset correction : 704
Overread into Lead-In and Lead-Out : No
Fill up missing offset samples with silence : Yes
Delete leading and trailing silent blocks : No
Null samples used in CRC calculations : Yes
Used interface : Native Win32 interface for Win NT & 2000
Used output format : Internal WAV Routines
Sample format : 44.100 Hz; 16 Bit; Stereo
TOC of the extracted CD
Track | Start | Length | Start sector | End sector
---------------------------------------------------------
1 | 0:00.32 | 3:44.73 | 32 | 16904
2 | 3:45.30 | 3:51.57 | 16905 | 34286
3 | 7:37.12 | 2:23.28 | 34287 | 45039
4 | 10:00.40 | 3:26.72 | 45040 | 60561
5 | 13:27.37 | 2:28.00 | 60562 | 71661
6 | 15:55.37 | 16:42.33 | 71662 | 146844
7 | 32:37.70 | 1:25.60 | 146845 | 153279
8 | 34:03.55 | 3:40.20 | 153280 | 169799
9 | 37:44.00 | 5:00.72 | 169800 | 192371
10 | 42:44.72 | 15:17.15 | 192372 | 261161
Range status and errors
Selected range
Filename C:\Documents and Settings\VB\My Documents\BARIN99\Green Room - Hidden Music\Green Room - Hidden Music.wav
Peak level 100.0 %
Extraction speed 0.7 X
Range quality 99.9 %
Copy CRC 5F929CC8
Copy OK
No errors occurred
AccurateRip summary
Track 1 accurately ripped (confidence 1) [D4943D64]
Track 2 accurately ripped (confidence 1) [6082B1C1]
Track 3 accurately ripped (confidence 1) [74065F76]
Track 4 accurately ripped (confidence 1) [DED5CA04]
Track 5 accurately ripped (confidence 1) [A496CE05]
Track 6 accurately ripped (confidence 1) [6C55D31C]
Track 7 accurately ripped (confidence 1) [86C2BE14]
Track 8 accurately ripped (confidence 1) [590D857B]
Track 9 accurately ripped (confidence 1) [6944ED6E]
Track 10 accurately ripped (confidence 1) [B6FD5EC8]
All tracks accurately ripped
End of status report
 
Содержание индексной карты (.CUE)
REM GENRE Avantgarde
REM DATE 1994
REM DISCID 930D9A0A
REM COMMENT "ExactAudioCopy v1.0b1"
PERFORMER "Green Room"
TITLE "Hidden Music"
FILE "Green Room - Hidden Music.wav" WAVE
TRACK 01 AUDIO
TITLE "Rotations"
PERFORMER "Green Room"
INDEX 00 00:00:00
INDEX 01 00:00:32
TRACK 02 AUDIO
TITLE "Fable "
PERFORMER "Green Room"
INDEX 00 03:40:55
INDEX 01 03:45:30
TRACK 03 AUDIO
TITLE "Bone "
PERFORMER "Green Room"
INDEX 00 07:32:42
INDEX 01 07:37:12
TRACK 04 AUDIO
TITLE "Bigfoot "
PERFORMER "Green Room"
INDEX 00 09:56:15
INDEX 01 10:00:40
TRACK 05 AUDIO
TITLE "Totem "
PERFORMER "Green Room"
INDEX 00 13:22:30
INDEX 01 13:27:37
TRACK 06 AUDIO
TITLE "Flux "
PERFORMER "Green Room"
INDEX 00 15:51:12
INDEX 01 15:55:37
TRACK 07 AUDIO
TITLE "Mosquito "
PERFORMER "Green Room"
INDEX 00 32:32:50
INDEX 01 32:37:70
TRACK 08 AUDIO
TITLE "Fracture "
PERFORMER "Green Room"
INDEX 00 34:00:15
INDEX 01 34:03:55
TRACK 09 AUDIO
TITLE "Embryo "
PERFORMER "Green Room"
INDEX 00 37:38:00
INDEX 01 37:44:00
TRACK 10 AUDIO
TITLE "Satellites "
PERFORMER "Green Room"
INDEX 00 42:40:72
INDEX 01 42:44:72
 
Об альбоме (сборнике)
by Thom Jurek
The American ensemble Green Room is a free improvisation trio that employs electronics, pianos (prepared and otherwise), electric guitars, samples, percussion, flutes, viola, etc., for a murky ride into the world of the "hidden." What they assemble is engaging in places, if thoroughly derivative of others who've gone the route before, from Stockhausen to Luc Ferrari to the early sound constructions of the German pop group DAF. Interestingly, there are ten selections here, and it is virtually impossible to tell one from another with the exception of track marks on the CD. Given this, the two longest tracks, "Flux" and "Satellites," work best. They tend to start slower, and offer their few ideas more sparingly because there is a lot of territory (tape) to cover. They offer an uninterrupted flow of information for a longer period, allowing the listener to drift in a little farther. They are innocuous bits of ambient detritus washed up from a netherworld caused by a lack of imagination or editing. It's too bad, because the one or two ideas they do have are good ones, though they are lost in a sea of musical and electronic muck with nothing to anchor them to.
 
Состав
David Baird — Cello, Chapman Stick, Tapes, Voices
Chick Lyall — Bamboo Flute, Computers, Piano
David Garrett — Dulcimer, Frame Drum, Percussion, Piano
Any questions -> support@pro-jazz.com. По всем вопросам пишите -> support@pro-jazz.com
15:18
156
Нет комментариев. Ваш будет первым!