Поиск

(Jazz, World, Soul) Zap Mama - Supermoon - 2007, FLAC (tracks+.cue) lossless

Zap Mama / Supermoon
Жанр: Jazz, World, Soul
Страна-производитель диска: USA
Год издания диска: 2007
Аудио кодек: FLAC (*.flac)
Тип рипа: tracks+.cue
Битрейт аудио: lossless
Продолжительность: 00:42:06
Источник (релизер): Собственный фирменный диск
Наличие сканов в содержимом раздачи: да (не мои)
Треклист:
01. 1000 Ways
02. Hey Brotha
03. Supermoon
04. Go Boy
05. Affection
06. Toma Taboo
07. Kwenda
08. Gati
09. Where Are You?
10. Moonray
11. Princess Kesia
 
Лог создания рипа
Exact Audio Copy V0.99 prebeta 5 from 4. May 2009
EAC extraction logfile from 26. February 2011, 14:20
Zap Mama / Supermoon
Used drive : HL-DT-STDVD-RAM GSA-H55N Adapter: 0 ID: 0
Read mode : Secure
Utilize accurate stream : Yes
Defeat audio cache : Yes
Make use of C2 pointers : No
Read offset correction : 102
Overread into Lead-In and Lead-Out : No
Fill up missing offset samples with silence : Yes
Delete leading and trailing silent blocks : No
Null samples used in CRC calculations : Yes
Used interface : Native Win32 interface for Win NT & 2000
Gap handling : Appended to previous track
Used output format : User Defined Encoder
Selected bitrate : 128 kBit/s
Quality : High
Add ID3 tag : No
Command line compressor : C:\Program Files\Exact Audio Copy\Flac\flac.exe
Additional command line options : -8 -V -T "ARTIST=%a" -T "TITLE=%t" -T "ALBUM=%g" -T "DATE=%y" -T "TRACKNUMBER=%n" -T "GENRE=%m" %s
TOC of the extracted CD
Track | Start | Length | Start sector | End sector
---------------------------------------------------------
1 | 0:00.00 | 3:18.02 | 0 | 14851
2 | 3:18.02 | 3:17.66 | 14852 | 29692
3 | 6:35.68 | 3:50.69 | 29693 | 47011
4 | 10:26.62 | 3:36.65 | 47012 | 63276
5 | 14:03.52 | 3:37.17 | 63277 | 79568
6 | 17:40.69 | 4:50.49 | 79569 | 101367
7 | 22:31.43 | 3:57.18 | 101368 | 119160
8 | 26:28.61 | 3:54.42 | 119161 | 136752
9 | 30:23.28 | 4:28.40 | 136753 | 156892
10 | 34:51.68 | 3:05.03 | 156893 | 170770
11 | 37:56.71 | 4:09.07 | 170771 | 189452
Track 1
Filename F:\Ripped by Safar\01. Zap Mama – 1000 Ways.wav
Pre-gap length 0:00:02.00
Peak level 96.5 %
Track quality 99.9 %
Test CRC DCF79754
Copy CRC DCF79754
Accurately ripped (confidence 13) [60226CBB]
Copy OK
Track 2
Filename F:\Ripped by Safar\02. Zap Mama – Hey Brotha.wav
Peak level 96.5 %
Track quality 99.9 %
Test CRC 243E5E13
Copy CRC 243E5E13
Accurately ripped (confidence 13) [27354D29]
Copy OK
Track 3
Filename F:\Ripped by Safar\03. Zap Mama – Supermoon.wav
Pre-gap length 0:00:01.16
Peak level 96.5 %
Track quality 100.0 %
Test CRC EEDF3639
Copy CRC EEDF3639
Accurately ripped (confidence 13) [8C2DBBBB]
Copy OK
Track 4
Filename F:\Ripped by Safar\04. Zap Mama – Go Boy.wav
Pre-gap length 0:00:00.86
Peak level 96.5 %
Track quality 100.0 %
Test CRC 89D9C492
Copy CRC 89D9C492
Accurately ripped (confidence 13) [E92DD3C2]
Copy OK
Track 5
Filename F:\Ripped by Safar\05. Zap Mama – Affection.wav
Pre-gap length 0:00:00.41
Peak level 96.5 %
Track quality 100.0 %
Test CRC BD571B8B
Copy CRC BD571B8B
Accurately ripped (confidence 13) [A79C63E3]
Copy OK
Track 6
Filename F:\Ripped by Safar\06. Zap Mama – Toma Taboo.wav
Pre-gap length 0:00:01.54
Peak level 96.5 %
Track quality 100.0 %
Test CRC F708BA17
Copy CRC F708BA17
Accurately ripped (confidence 13) [438A3BD9]
Copy OK
Track 7
Filename F:\Ripped by Safar\07. Zap Mama – Kwenda.wav
Pre-gap length 0:00:00.49
Peak level 96.5 %
Track quality 100.0 %
Test CRC A1444C47
Copy CRC A1444C47
Accurately ripped (confidence 12) [8552CDF9]
Copy OK
Track 8
Filename F:\Ripped by Safar\08. Zap Mama – Gati.wav
Pre-gap length 0:00:01.53
Peak level 96.5 %
Track quality 100.0 %
Test CRC 95371416
Copy CRC 95371416
Accurately ripped (confidence 12) [5B6873AC]
Copy OK
Track 9
Filename F:\Ripped by Safar\09. Zap Mama – Where Are You .wav
Pre-gap length 0:00:01.69
Peak level 96.5 %
Track quality 100.0 %
Test CRC 4347F013
Copy CRC 4347F013
Accurately ripped (confidence 12) [5BB76EC6]
Copy OK
Track 10
Filename F:\Ripped by Safar\10. Zap Mama – Moonray.wav
Peak level 96.4 %
Track quality 100.0 %
Test CRC AD812E53
Copy CRC AD812E53
Accurately ripped (confidence 13) [3B27EBB9]
Copy OK
Track 11
Filename F:\Ripped by Safar\11. Zap Mama – Princess Kesia.wav
Peak level 96.5 %
Track quality 100.0 %
Test CRC 8C2B17DD
Copy CRC 8C2B17DD
Accurately ripped (confidence 13) [FDB417E1]
Copy OK
All tracks accurately ripped
No errors occurred
End of status report
 
Содержание индексной карты (.CUE)
REM DATE 2007
REM DISCID 8D09DE0B
REM COMMENT "ExactAudioCopy v0.99pb5"
PERFORMER "Zap Mama"
TITLE "Supermoon"
FILE "01. Zap Mama – 1000 Ways.wav" WAVE
TRACK 01 AUDIO
TITLE "1000 Ways"
PERFORMER "Zap Mama"
INDEX 01 00:00:00
FILE "02. Zap Mama – Hey Brotha.wav" WAVE
TRACK 02 AUDIO
TITLE "Hey Brotha"
PERFORMER "Zap Mama"
INDEX 01 00:00:00
TRACK 03 AUDIO
TITLE "Supermoon"
PERFORMER "Zap Mama"
INDEX 00 03:16:54
FILE "03. Zap Mama – Supermoon.wav" WAVE
INDEX 01 00:00:00
TRACK 04 AUDIO
TITLE "Go Boy"
PERFORMER "Zap Mama"
INDEX 00 03:50:04
FILE "04. Zap Mama – Go Boy.wav" WAVE
INDEX 01 00:00:00
TRACK 05 AUDIO
TITLE "Affection"
PERFORMER "Zap Mama"
INDEX 00 03:36:34
FILE "05. Zap Mama – Affection.wav" WAVE
INDEX 01 00:00:00
TRACK 06 AUDIO
TITLE "Toma Taboo"
PERFORMER "Zap Mama"
INDEX 00 03:35:51
FILE "06. Zap Mama – Toma Taboo.wav" WAVE
INDEX 01 00:00:00
TRACK 07 AUDIO
TITLE "Kwenda"
PERFORMER "Zap Mama"
INDEX 00 04:50:12
FILE "07. Zap Mama – Kwenda.wav" WAVE
INDEX 01 00:00:00
TRACK 08 AUDIO
TITLE "Gati"
PERFORMER "Zap Mama"
INDEX 00 03:55:53
FILE "08. Zap Mama – Gati.wav" WAVE
INDEX 01 00:00:00
TRACK 09 AUDIO
TITLE "Where Are You?"
PERFORMER "Zap Mama"
INDEX 00 03:52:65
FILE "09. Zap Mama – Where Are You .wav" WAVE
INDEX 01 00:00:00
FILE "10. Zap Mama – Moonray.wav" WAVE
TRACK 10 AUDIO
TITLE "Moonray"
PERFORMER "Zap Mama"
INDEX 01 00:00:00
FILE "11. Zap Mama – Princess Kesia.wav" WAVE
TRACK 11 AUDIO
TITLE "Princess Kesia"
PERFORMER "Zap Mama"
INDEX 01 00:00:00
 
Фото диска
20:37
294
Нет комментариев. Ваш будет первым!