Поиск

(Brazilian Jazz, Bossa Nova) Johnny Alf - Diagonal (1964) - 2002, FLAC (tracks+.cue) lossless

Треклист:
Johnny Alf
Diagonal (1964)



.
Жанр: Brazilian Jazz, Bossa Nova | Страна: Brazil
Дата выпуска альбома / диска: 1964 / 2002 | Производитель диска: Sony BMG, Brazil
Аудио кодек: FLAC | Тип рипа: tracks+.cue | Битрейт аудио: lossless
+ TIF art scans
Формат: Studio Album
Источник: original CD, ripped by Flabber
Продолжительность: 28:01


~ TRACKLiST ~
01. Disa (2:36)
02. O ceu e voce (1:45)
03. Bondinho do Pao-de-acucar (3:04)
04. Podem falar (1:48)
05. Vejo a tarde cair (2:29)
06. Desejo do mar (2:37)
07. Ceu e mar (3:12)
08. Seu Chopin, desculpe (2:04)
09. Diagonal (2:11)
10. Moca-flor (2:19)
11. Termos de cancao (2:07)
12. Triste noturno (1:49)


Celso Murilo - organ, piano, arrangements
Santos, Maurilio, Hamilton, Julinho and Wagner - trumpets
Ze Bodega - tenor sax
Aurino - baritone sax, Macaxeira and Norato
Jorginho - alto sax and flute
Macaxeira and Norato - trombones
Neco - electric guitar
Luis Marinho - bass
Edison Machado - drums
Johnny Alf - vocal
.
 
EAC log
Exact Audio Copy V0.99 prebeta 5 from 4. May 2009
EAC extraction logfile from 21. November 2009, 19:48
Johnny Alf / Diagonal
Used drive : TDK CDRW5200B Adapter: 1 ID: 1
Read mode : Secure
Utilize accurate stream : Yes
Defeat audio cache : Yes
Make use of C2 pointers : No
Read offset correction : 6
Overread into Lead-In and Lead-Out : No
Fill up missing offset samples with silence : Yes
Delete leading and trailing silent blocks : No
Null samples used in CRC calculations : Yes
Used interface : Native Win32 interface for Win NT & 2000
Gap handling : Appended to previous track
Used output format : User Defined Encoder
Selected bitrate : 768 kBit/s
Quality : High
Add ID3 tag : No
Command line compressor : C:\Program Files\Exact Audio Copy\FLAC\FLAC.EXE
Additional command line options : -8 -V -T "ARTIST=%a" -T "TITLE=%t" -T "ALBUM=%g" -T "DATE=%y" -
T "TRACKNUMBER=%n" -T "TOTALTRACKS=%x" -T "GENRE=%m" -T "ALBUM ARTIST=%v" -T "ALBUMARTIST=%v" -
T "COMMENT=EAC V0.99 prebeta 4, Secure Mode, Test & Copy, Accurat
TOC of the extracted CD
Track | Start | Length | Start sector | End sector
---------------------------------------------------------
1 | 0:00.00 | 2:36.30 | 0 | 11729
2 | 2:36.30 | 1:45.40 | 11730 | 19644
3 | 4:21.70 | 3:04.45 | 19645 | 33489
4 | 7:26.40 | 1:48.27 | 33490 | 41616
5 | 9:14.67 | 2:29.15 | 41617 | 52806
6 | 11:44.07 | 2:37.15 | 52807 | 64596
7 | 14:21.22 | 3:12.30 | 64597 | 79026
8 | 17:33.52 | 2:04.18 | 79027 | 88344
9 | 19:37.70 | 2:11.72 | 88345 | 98241
10 | 21:49.67 | 2:19.23 | 98242 | 108689
11 | 24:09.15 | 2:07.45 | 108690 | 118259
12 | 26:16.60 | 1:49.02 | 118260 | 126436
Track 1
Filename C:\01 - Disa.wav
Pre-gap length 0:00:02.00
Peak level 97.7 %
Track quality 99.9 %
Test CRC D182AB61
Copy CRC D182AB61
Track not present in AccurateRip database
Copy OK
Track 2
Filename C:\02 - O ceu e voce.wav
Pre-gap length 0:00:01.60
Peak level 97.7 %
Track quality 100.0 %
Test CRC E7650E7C
Copy CRC E7650E7C
Track not present in AccurateRip database
Copy OK
Track 3
Filename C:\03 - Bondinho do Pao-de-acucar.wav
Pre-gap length 0:00:01.57
Peak level 97.7 %
Track quality 99.9 %
Test CRC 7275D70C
Copy CRC 7275D70C
Track not present in AccurateRip database
Copy OK
Track 4
Filename C:\04 - Podem falar.wav
Pre-gap length 0:00:01.53
Peak level 97.7 %
Track quality 100.0 %
Test CRC 04F98553
Copy CRC 04F98553
Track not present in AccurateRip database
Copy OK
Track 5
Filename C:\05 - Vejo a tarde cair.wav
Pre-gap length 0:00:01.56
Peak level 97.7 %
Track quality 100.0 %
Test CRC 7C7AC9C0
Copy CRC 7C7AC9C0
Track not present in AccurateRip database
Copy OK
Track 6
Filename C:\06 - Desejo do mar.wav
Pre-gap length 0:00:01.82
Peak level 97.7 %
Track quality 100.0 %
Test CRC C9729155
Copy CRC C9729155
Track not present in AccurateRip database
Copy OK
Track 7
Filename C:\07 - Ceu e mar.wav
Pre-gap length 0:00:01.49
Peak level 97.7 %
Track quality 100.0 %
Test CRC CF424D7A
Copy CRC CF424D7A
Track not present in AccurateRip database
Copy OK
Track 8
Filename C:\08 - Seu Chopin, desculpe.wav
Pre-gap length 0:00:01.49
Peak level 97.7 %
Track quality 100.0 %
Test CRC 36FAFBAE
Copy CRC 36FAFBAE
Track not present in AccurateRip database
Copy OK
Track 9
Filename C:\09 - Diagonal.wav
Pre-gap length 0:00:01.66
Peak level 97.7 %
Track quality 100.0 %
Test CRC B32B95F0
Copy CRC B32B95F0
Track not present in AccurateRip database
Copy OK
Track 10
Filename C:\10 - Moca-flor.wav
Pre-gap length 0:00:01.49
Peak level 97.7 %
Track quality 100.0 %
Test CRC 5E30FA17
Copy CRC 5E30FA17
Track not present in AccurateRip database
Copy OK
Track 11
Filename C:\11 - Termos de cancao.wav
Pre-gap length 0:00:01.57
Peak level 97.7 %
Track quality 100.0 %
Test CRC 98CB9D25
Copy CRC 98CB9D25
Track not present in AccurateRip database
Copy OK
Track 12
Filename C:\12 - Triste noturno.wav
Pre-gap length 0:00:01.57
Peak level 97.7 %
Track quality 100.0 %
Test CRC D79ACB83
Copy CRC D79ACB83
Track not present in AccurateRip database
Copy OK
None of the tracks are present in the AccurateRip database
No errors occurred
End of status report
 
*.cue
REM GENRE Latin
REM DATE 1964
REM DISCID 9C06950C
REM COMMENT "ExactAudioCopy v0.99pb5"
PERFORMER "Johnny Alf"
TITLE "Diagonal"
FILE "01 - Disa.wav" WAVE
TRACK 01 AUDIO
TITLE "Disa"
PERFORMER "Johnny Alf"
INDEX 01 00:00:00
TRACK 02 AUDIO
TITLE "O ceu e voce"
PERFORMER "Johnny Alf"
INDEX 00 02:34:60
FILE "02 - O ceu e voce.wav" WAVE
INDEX 01 00:00:00
TRACK 03 AUDIO
TITLE "Bondinho do Pao-de-acucar"
PERFORMER "Johnny Alf"
INDEX 00 01:43:72
FILE "03 - Bondinho do Pao-de-acucar.wav" WAVE
INDEX 01 00:00:00
TRACK 04 AUDIO
TITLE "Podem falar"
PERFORMER "Johnny Alf"
INDEX 00 03:03:05
FILE "04 - Podem falar.wav" WAVE
INDEX 01 00:00:00
TRACK 05 AUDIO
TITLE "Vejo a tarde cair"
PERFORMER "Johnny Alf"
INDEX 00 01:46:60
FILE "05 - Vejo a tarde cair.wav" WAVE
INDEX 01 00:00:00
TRACK 06 AUDIO
TITLE "Desejo do mar"
PERFORMER "Johnny Alf"
INDEX 00 02:27:28
FILE "06 - Desejo do mar.wav" WAVE
INDEX 01 00:00:00
TRACK 07 AUDIO
TITLE "Ceu e mar"
PERFORMER "Johnny Alf"
INDEX 00 02:35:53
FILE "07 - Ceu e mar.wav" WAVE
INDEX 01 00:00:00
TRACK 08 AUDIO
TITLE "Seu Chopin, desculpe"
PERFORMER "Johnny Alf"
INDEX 00 03:10:68
FILE "08 - Seu Chopin, desculpe.wav" WAVE
INDEX 01 00:00:00
TRACK 09 AUDIO
TITLE "Diagonal"
PERFORMER "Johnny Alf"
INDEX 00 02:02:43
FILE "09 - Diagonal.wav" WAVE
INDEX 01 00:00:00
TRACK 10 AUDIO
TITLE "Moca-flor"
PERFORMER "Johnny Alf"
INDEX 00 02:10:35
FILE "10 - Moca-flor.wav" WAVE
INDEX 01 00:00:00
TRACK 11 AUDIO
TITLE "Termos de cancao"
PERFORMER "Johnny Alf"
INDEX 00 02:17:55
FILE "11 - Termos de cancao.wav" WAVE
INDEX 01 00:00:00
TRACK 12 AUDIO
TITLE "Triste noturno"
PERFORMER "Johnny Alf"
INDEX 00 02:06:02
FILE "12 - Triste noturno.wav" WAVE
INDEX 01 00:00:00
 
Audiochecker’s log
AUDIOCHECKER v2.0 beta (build 457) - by Dester - opdester@freemail.hu
~~~~~~~~~~~~~~~~~~~~~~~~~~~~~~~~~~
Started at: понедельник, 21. 02. 2011. - 17:26.49
12 files found
01 -===- F:\Johnny Alf - Diagonal (1964) 2002 [flac]\01 - Disa.flac
Extracted successfully
Conclusion: this track is CDDA with probability 100%
Tempfile successfully deleted.
02 -===- F:\Johnny Alf - Diagonal (1964) 2002 [flac]\02 - O ceu e voce.flac
Extracted successfully
Conclusion: this track is CDDA with probability 100%
Tempfile successfully deleted.
03 -===- F:\Johnny Alf - Diagonal (1964) 2002 [flac]\03 - Bondinho do Pao-de-acucar.flac
Extracted successfully
Conclusion: this track is CDDA with probability 100%
Tempfile successfully deleted.
04 -===- F:\Johnny Alf - Diagonal (1964) 2002 [flac]\04 - Podem falar.flac
Extracted successfully
Conclusion: this track is CDDA with probability 100%
Tempfile successfully deleted.
05 -===- F:\Johnny Alf - Diagonal (1964) 2002 [flac]\05 - Vejo a tarde cair.flac
Extracted successfully
Conclusion: this track is CDDA with probability 100%
Tempfile successfully deleted.
06 -===- F:\Johnny Alf - Diagonal (1964) 2002 [flac]\06 - Desejo do mar.flac
Extracted successfully
Conclusion: this track is CDDA with probability 99%
Tempfile successfully deleted.
07 -===- F:\Johnny Alf - Diagonal (1964) 2002 [flac]\07 - Ceu e mar.flac
Extracted successfully
Conclusion: this track is CDDA with probability 100%
Tempfile successfully deleted.
08 -===- F:\Johnny Alf - Diagonal (1964) 2002 [flac]\08 - Seu Chopin, desculpe.flac
Extracted successfully
Conclusion: this track is CDDA with probability 100%
Tempfile successfully deleted.
09 -===- F:\Johnny Alf - Diagonal (1964) 2002 [flac]\09 - Diagonal.flac
Extracted successfully
Conclusion: this track is CDDA with probability 100%
Tempfile successfully deleted.
10 -===- F:\Johnny Alf - Diagonal (1964) 2002 [flac]\10 - Moca-flor.flac
Extracted successfully
Conclusion: this track is CDDA with probability 100%
Tempfile successfully deleted.
11 -===- F:\Johnny Alf - Diagonal (1964) 2002 [flac]\11 - Termos de cancao.flac
Extracted successfully
Conclusion: this track is CDDA with probability 100%
Tempfile successfully deleted.
12 -===- F:\Johnny Alf - Diagonal (1964) 2002 [flac]\12 - Triste noturno.flac
Extracted successfully
Conclusion: this track is CDDA with probability 100%
Tempfile successfully deleted.
Finished at: понедельник, 21. 02. 2011. - 17:40.26 (operation time: 0:13.36)



Сидирую до первых 10-ти скачавших. Далее раздача поддерживается силами скачавших.
Скачали сами - дайте скачать другим. .
19:37
220
Нет комментариев. Ваш будет первым!