Поиск

(Jazz, Bossa Nova) Gabriela Anders - Wanting - 1998, FLAC (image+.cue) lossless

Gabriela Anders / Wanting
Жанр: Jazz, Bossa Nova
Страна-производитель диска: USA
Год издания диска: 1998
Издатель (лейбл): Warner Bros.
Номер по каталогу: 9 46907-2
Аудио кодек: FLAC (*.flac)
Тип рипа: image+.cue
Битрейт аудио: lossless
Продолжительность: 56:51
Источник (релизер): 142700
Наличие сканов в содержимом раздачи: да
Треклист:
01. Fire Of Love [0:04:17.25]
02. The Girl From Ipanema [0:04:24.60]
03. Wanting [0:04:39.53]
04. Forever [0:05:00.30]
05. You Know What It's Like [0:04:44.52]
06. Seven Days [0:05:41.15]
07. Just An Hour [0:06:03.03]
08. Fantasia [0:05:07.40]
09. I'll Be Loving You [0:04:12.60]
10. Love Is So Unkind [0:03:48.05]
11. Feels So Good [0:05:11.27]
12. Brasileira [0:03:39.63]
 
Лог создания рипа
Exact Audio Copy V0.99 prebeta 5 from 4. May 2009
EAC extraction logfile from 26. February 2011, 12:44
Gabriela Anders / Wanting
Used drive : TSSTcorpCDDVDW SH-S223F Adapter: 3 ID: 0
Read mode : Secure
Utilize accurate stream : Yes
Defeat audio cache : Yes
Make use of C2 pointers : No
Read offset correction : 6
Overread into Lead-In and Lead-Out : No
Fill up missing offset samples with silence : Yes
Delete leading and trailing silent blocks : No
Null samples used in CRC calculations : Yes
Used interface : Native Win32 interface for Win NT & 2000
Used output format : User Defined Encoder
Selected bitrate : 128 kBit/s
Quality : High
Add ID3 tag : No
Command line compressor : C:\Program Files\FLAC\flac.exe
Additional command line options : -8 -V %s
TOC of the extracted CD
Track | Start | Length | Start sector | End sector
---------------------------------------------------------
1 | 0:00.32 | 4:17.25 | 32 | 19331
2 | 4:17.57 | 4:24.60 | 19332 | 39191
3 | 8:42.42 | 4:39.53 | 39192 | 60169
4 | 13:22.20 | 5:00.30 | 60170 | 82699
5 | 18:22.50 | 4:44.52 | 82700 | 104051
6 | 23:07.27 | 5:41.15 | 104052 | 129641
7 | 28:48.42 | 6:03.03 | 129642 | 156869
8 | 34:51.45 | 5:07.40 | 156870 | 179934
9 | 39:59.10 | 4:12.60 | 179935 | 198894
10 | 44:11.70 | 3:48.05 | 198895 | 215999
11 | 48:00.00 | 5:11.27 | 216000 | 239351
12 | 53:11.27 | 3:39.63 | 239352 | 255839
Range status and errors
Selected range
Filename G:\CD IMAGES\Gabriela Anders - Wanting 1998\Gabriela Anders - Wanting.wav
Peak level 100.0 %
Range quality 100.0 %
Test CRC 1D468AA9
Copy CRC 1D468AA9
Copy OK
No errors occurred
AccurateRip summary
Track 1 accurately ripped (confidence 25) [55E688F7]
Track 2 accurately ripped (confidence 25) [77A754BC]
Track 3 accurately ripped (confidence 25) [FADEB433]
Track 4 accurately ripped (confidence 25) [2701ECD2]
Track 5 accurately ripped (confidence 25) [6D51E877]
Track 6 accurately ripped (confidence 25) [BEBB7030]
Track 7 accurately ripped (confidence 25) [39DA96E3]
Track 8 accurately ripped (confidence 25) [43EAEA85]
Track 9 accurately ripped (confidence 25) [086D26F8]
Track 10 accurately ripped (confidence 25) [010D4F63]
Track 11 accurately ripped (confidence 25) [270A547A]
Track 12 accurately ripped (confidence 25) [5A7ED312]
All tracks accurately ripped
End of status report
Доп. информация: Рип выполнен с фирменного диска и собственной коллекции.
20:38
339
Нет комментариев. Ваш будет первым!